<?xml version="1.0" standalone="no"?>
<!DOCTYPE svg PUBLIC "-//W3C//DTD SVG 1.1//EN" "http://www.w3.org/Graphics/SVG/1.1/DTD/svg11.dtd" >
<svg xmlns="http://www.w3.org/2000/svg">
<metadata>Generated by IcoMoon</metadata>
<defs>
<font id="icomoon" horiz-adv-x="1024">
<font-face units-per-em="1024" ascent="960" descent="-64" />
<missing-glyph horiz-adv-x="1024" />
<glyph unicode="&#x20;" horiz-adv-x="512" d="" />
<glyph unicode="&#xe900;" glyph-name="address" d="M80 538.667v11.334c0 181.962 148.038 330 330 330 170.964 0 311.968-130.686 328.39-297.404l80.184-73.148c0.924 9.868 1.426 19.616 1.426 29.218v11.334c0 226.074-183.926 410-410 410s-410-183.926-410-410v-11.334c0-114.336 65.552-247.572 194.836-396.004 93.724-107.606 186.138-182.636 190.026-185.778l25.138-20.308v103.966c-81.062 71.026-330 304.916-330 498.124zM776 98h-120v120h120z" />
<glyph unicode="&#xe901;" glyph-name="budget" d="M176 434.32v-34.32h32v34.32c18.48 5.856 32 22.96 32 43.344 0 17.392-9.664 33.056-25.248 40.848l-31.2 15.584c-4.656 2.336-7.552 7.024-7.552 12.24 0 7.536 6.128 13.664 13.664 13.664h4.672c7.536 0 13.664-6.128 13.664-13.664v-2.336h32v2.336c0 20.384-13.52 37.488-32 43.344v34.32h-32v-34.32c-18.48-5.856-32-22.96-32-43.344 0-17.392 9.664-33.056 25.248-40.848l31.2-15.584c4.656-2.336 7.552-7.024 7.552-12.24 0-7.536-6.128-13.664-13.664-13.664h-4.672c-7.536 0-13.664 6.128-13.664 13.664v18.336h-32v-18.336c0-20.384 13.52-37.488 32-43.344zM192 336c97.040 0 176 78.96 176 176 0 4.384-0.336 8.688-0.656 13.008l54.272 9.056c9.984-22.384 32.352-38.064 58.384-38.064 35.296 0 64 28.704 64 64 0 5.824-1.040 11.36-2.496 16.72l116.72 66.704c11.632-11.952 27.824-19.424 45.776-19.424 35.296 0 64 28.704 64 64 0 11.84-3.44 22.784-9.072 32.304l169.072 169.072v-89.376h32v144h-144v-32h89.376l-169.072-169.072c-9.52 5.632-20.464 9.072-32.304 9.072-35.296 0-64-28.704-64-64 0-5.824 1.040-11.36 2.496-16.72l-116.72-66.704c-11.632 11.952-27.824 19.424-45.776 19.424-33.36 0-60.512-25.744-63.424-58.352l-54.512-9.088c-19.808 75.504-88.432 131.44-170.064 131.44-97.040 0-176-78.96-176-176s78.96-176 176-176zM704 720c17.648 0 32-14.352 32-32s-14.352-32-32-32-32 14.352-32 32 14.352 32 32 32zM480 592c17.648 0 32-14.352 32-32s-14.352-32-32-32-32 14.352-32 32 14.352 32 32 32zM192 656c79.392 0 144-64.608 144-144s-64.608-144-144-144-144 64.608-144 144 64.608 144 144 144zM48-48h160v352h-160zM80 272h96v-288h-96zM240-48h160v320h-160zM272 240h96v-256h-96zM432-48h160v512h-160zM464 432h96v-448h-96zM864 205.68v34.32h-32v-34.32c-18.48-5.856-32-22.96-32-43.344 0-17.392 9.664-33.040 25.248-40.848l31.2-15.6c4.656-2.32 7.552-7.008 7.552-12.224 0-7.52-6.128-13.664-13.664-13.664h-4.672c-7.536 0-13.664 6.144-13.664 13.664v18.336h-32v-18.336c0-20.4 13.52-37.504 32-43.344v-34.32h32v34.32c18.48 5.856 32 22.96 32 43.344 0 17.392-9.664 33.040-25.248 40.848l-31.2 15.6c-4.656 2.32-7.552 7.008-7.552 12.224 0 7.52 6.128 13.664 13.664 13.664h4.672c7.536 0 13.664-6.144 13.664-13.664v-2.336h32v2.336c0 20.384-13.52 37.488-32 43.344zM983.68 203.504l-54.336 86.944 28.432 99.504c1.472 5.2 2.224 10.56 2.224 15.936 0 32.048-26.064 58.112-58.096 58.112h-43.792c-22.608 0-42.016-13.104-51.616-32h-22.496v160h-160v-640h224c88.224 0 160 71.776 160 160v6.704c0 30.032-8.416 59.344-24.32 84.8zM832 405.888c0 14.4 11.712 26.112 26.096 26.112h43.792c14.4 0 26.112-11.712 26.112-26.112 0-2.416-0.336-4.832-1.008-7.168l-27.056-94.72h-109.312l-46.064 46.064c-5.44 5.456-8.56 12.976-8.56 20.688 0 16.128 13.12 29.248 29.264 29.248h34.736v-32h32zM656-16v576h96v-129.536c-27.408-6.080-48-30.512-48-59.712 0-16.368 6.368-31.744 17.952-43.312l41.744-41.744-51.36-82.192c-15.92-25.456-24.336-54.768-24.336-84.8v-6.704c0-52.368 25.408-98.8 64.416-128zM976 112c0-70.576-57.424-128-128-128s-128 57.424-128 128v6.704c0 24.016 6.72 47.472 19.456 67.824l53.408 85.472h110.272l53.408-85.472c12.736-20.352 19.456-43.808 19.456-67.824z" />
<glyph unicode="&#xe902;" glyph-name="calendar" d="M921.6 857.6h-51.2v51.2c0 30.72-20.48 51.2-51.2 51.2s-51.2-20.48-51.2-51.2v-51.2h-512v51.2c0 30.72-20.48 51.2-51.2 51.2s-51.2-20.48-51.2-51.2v-51.2h-102.4c-25.6 0-51.2-20.48-51.2-51.2v-716.8c0-30.72 25.6-51.2 51.2-51.2h312.32c-35.84 61.44-56.32 133.12-56.32 204.8 0 225.28 184.32 409.6 409.6 409.6 97.28 0 184.32-35.84 256-92.16v245.76c0 25.6-25.6 51.2-51.2 51.2zM716.8 550.4c-168.96 0-307.2-138.24-307.2-307.2s138.24-307.2 307.2-307.2 307.2 138.24 307.2 307.2-138.24 307.2-307.2 307.2zM819.2 192h-102.4c-30.72 0-51.2 20.48-51.2 51.2v153.6c0 30.72 20.48 51.2 51.2 51.2s51.2-20.48 51.2-51.2v-102.4h51.2c30.72 0 51.2-20.48 51.2-51.2s-20.48-51.2-51.2-51.2z" />
<glyph unicode="&#xe903;" glyph-name="campaign" d="M896 560c35.346 0 64 28.654 64 64v0 192c0 35.346-28.654 64-64 64v0h-352c-35.346 0-64-28.654-64-64v0-192c0-35.346 28.654-64 64-64v0h16v-48c0-0.001 0-0.002 0-0.002 0-8.837 7.163-16 16-16 3.31 0 6.385 1.005 8.937 2.727l-0.057-0.036 91.92 61.312zM663.12 589.312l-71.12-47.408v34.096c0 8.837-7.163 16-16 16v0h-32c-17.673 0-32 14.327-32 32v0 192c0 17.673 14.327 32 32 32v0h352c17.673 0 32-14.327 32-32v0-192c0-17.673-14.327-32-32-32v0h-224c-3.309-0.005-6.383-1.009-8.938-2.725l0.058 0.037zM560 800h32v-32h-32zM624 800h256v-32h-256zM560 736h320v-32h-320zM560 672h320v-32h-320zM632 412.208c5.083 20.217 8 43.426 8 67.316 0 0.167 0 0.335 0 0.502v-0.026q0 8.512-0.48 16.928l-32-1.856c0.288-4.976 0.432-10.016 0.432-15.072 0-0.158 0.001-0.345 0.001-0.531 0-21.181-2.596-41.755-7.488-61.422l0.367 1.746zM560 208v-144c0-26.51 21.49-48 48-48s48 21.49 48 48v0 139.2l209.952-56c5.775-20.425 24.249-35.14 46.16-35.14 26.448 0 47.888 21.44 47.888 47.888 0 0.018 0 0.037 0 0.055v-0.003 288c0 0.015 0 0.034 0 0.052 0 26.448-21.44 47.888-47.888 47.888-21.911 0-40.385-14.715-46.078-34.802l-0.082-0.338-228.048-60.8h-77.904c-53.019 0-96-42.981-96-96s42.981-96 96-96v0zM624 64c0-8.837-7.163-16-16-16s-16 7.163-16 16v0 144h32zM912 464c8.837 0 16-7.163 16-16v0-288c0-8.837-7.163-16-16-16s-16 7.163-16 16v0 288c0 8.837 7.163 16 16 16v0zM864 180.8l-208 55.488v135.424l208 55.488zM560 368h64v-128h-64c-35.346 0-64 28.654-64 64s28.654 64 64 64v0zM453.648 749.536c-30.249 11.796-65.267 18.632-101.882 18.632-158.987 0-287.872-128.885-287.872-287.872 0-101.64 52.675-190.977 132.215-242.201l1.138-0.686c25.835-16.468 42.729-44.963 42.752-77.405v-128.003c0-8.837 7.163-16 16-16v0h16v-32h32v32h32v-32h32v32h32v-32h32v32h16c8.837 0 16 7.163 16 16v0 128c0.039 20.476 6.752 39.376 18.080 54.648l-0.176-0.248-25.712 19.040c-11.951-16.070-20.187-35.583-23.065-56.799l-0.071-0.641h-65.056v145.28c54.546 8.094 95.932 54.564 96 110.713v0.007h-32c0-44.183-35.817-80-80-80s-80 35.817-80 80v0h-32c0.068-56.156 41.454-102.626 95.387-110.645l0.613-0.075v-145.28h-65.024c-5.051 37.379-26.182 68.99-56.079 88.087l-0.497 0.297c-71.748 45.797-118.642 124.997-118.642 215.149 0 13.287 1.019 26.336 2.982 39.073l-0.18-1.422c18.811 124.533 125.089 218.894 253.407 218.894 32.479 0 63.545-6.045 92.136-17.072l-1.751 0.594zM272 48v32h160v-32zM272 112v32h160v-32zM352 672c0.056 0 0.123 0 0.19 0 21.043 0 41.294-3.389 60.237-9.652l-1.355 0.388 9.856 30.4c-20.544 6.85-44.197 10.802-68.773 10.802-85.978 0-160.659-48.367-198.319-119.377l-0.588-1.216 28.368-14.8c32.589 61.941 96.507 103.456 170.121 103.456 0.092 0 0.185 0 0.277 0h-0.014zM130.64 514.448l31.616-4.896c1.771 11.314 4.211 21.269 7.395 30.886l-0.387-1.35-30.4 9.824c-3.269-9.636-6.131-21.25-8.053-33.179l-0.171-1.285z" />
<glyph unicode="&#xe904;" glyph-name="charity" d="M981.975 639.572c-5.195 0.187-10.258-0.531-15.031-2.078v64.679c0 23.766-19.336 43.101-43.101 43.101-4.578 0-8.984-0.727-13.125-2.055-0.453 23.375-19.578 42.265-43.062 42.265h-0.859c-16.375 0-30.641-9.18-37.937-22.672-5.547 2.609-11.719 4.109-18.242 4.109h-0.859c-23.773 0-43.109-19.336-43.109-43.101v-21.82c-4.172 1.328-8.57 2.039-13.078 2.039h-1.070c-23.453 0-42.781-19.070-43.094-42.515-0.125-9.898-1.883-108.203 0.328-147.546 2.937-52.226 16.047-92.781 38.961-120.554 3.711-4.5 5.758-10.047 5.758-15.633v-49.070h-0.305c-13.797 0-25.023-11.227-25.023-25.016v-32.086c-8.93-2.797-15.422-11.141-15.422-20.976v-299.632c0-8.289 6.719-15.008 15.008-15.008h238.648c8.289 0 15.008 6.719 15.008 15.008v291.335c0 11.297-6.227 21.148-15.422 26.351v35.008c0 13.352-10.523 24.266-23.711 24.953v39.765c0 7.43 3.297 14.289 9.047 18.828 0.969 0.766 1.969 1.57 3 2.43 0.078 0.055 0.148 0.117 0.219 0.18 29.406 25.328 48.976 54.648 59.828 89.625 5.68 18.289 8.555 37.437 8.555 56.914v59.031c0 23.914-18.406 43.305-41.906 44.14zM951.936 242.597h0.156c0.133 0 0.25-0.109 0.25-0.25v-276.319h-208.616v276.569zM759.147 272.62v26.078h177.773v-26.078zM993.857 536.4c0-16.453-2.422-32.609-7.203-48.023-9.25-29.805-25.336-53.851-50.64-75.672-0.797-0.664-1.586-1.297-2.336-1.891-13.008-10.258-20.469-25.711-20.469-42.39v-39.703h-128.734v49.070c0 12.539-4.484 24.883-12.625 34.742-18.758 22.726-29.57 57.429-32.14 103.132-2.156 38.234-0.414 135.515-0.281 145.468 0.094 7.102 5.961 12.883 13.070 12.883h1.070c3.492 0 6.781-1.359 9.25-3.828 2.469-2.477 3.828-5.758 3.828-9.25v-84.281c0-8.289 6.727-15.008 15.016-15.008s15.008 6.719 15.008 15.008v147.163c0 7.211 5.867 13.086 13.086 13.086h0.859c7.211 0 13.078-5.875 13.078-13.086v-147.163c0-8.289 6.719-15.008 15.008-15.008s15.016 6.719 15.016 15.008v165.726c0 7.211 5.867 13.078 13.078 13.078h0.859c7.219 0 13.086-5.867 13.086-13.078v-165.726c0-8.289 6.719-15.008 15.008-15.008s15.016 6.719 15.016 15.008v125.515c0 7.211 5.867 13.086 13.078 13.086s13.078-5.875 13.078-13.086v-173.663c0-2.414-1.359-4.609-3.555-5.727-15.406-7.844-37.039-21.375-52.586-41.242-5.109-6.531-3.961-15.961 2.57-21.070 2.742-2.148 6-3.195 9.242-3.195 4.453 0 8.867 1.977 11.828 5.766 12.805 16.359 32.172 27.687 42.57 32.984 12.312 6.273 19.961 18.719 19.961 32.484v67.609c0 3.68 1.461 7.125 4.109 9.68 2.656 2.562 6.141 3.898 9.852 3.766 7.141-0.258 12.953-6.594 12.953-14.133v-59.031zM277.196 280.003c22.914 27.773 36.023 68.328 38.961 120.554 2.211 39.351 1.5 79.25 0.812 117.835-0.18 9.906-0.359 19.812-0.484 29.719-0.312 23.437-19.641 42.508-43.101 42.508h-1.062c-4.562 0-8.953-0.719-13.086-2.039v21.82c0 23.773-19.336 43.101-43.101 43.101h-0.859c-6.523 0-12.695-1.5-18.242-4.109-7.297 13.484-21.562 22.672-37.945 22.672h-0.852c-23.492 0-42.617-18.891-43.062-42.265-4.148 1.328-8.547 2.055-13.125 2.055-23.773 0-43.109-19.336-43.109-43.101v-64.679c-4.773 1.547-9.836 2.266-15.031 2.078-23.5-0.836-41.906-20.226-41.906-44.14v-59.031c0-19.469 2.883-38.617 8.555-56.914 10.852-34.976 30.422-64.289 59.836-89.625 0.070-0.062 0.148-0.125 0.227-0.187 1.031-0.852 2.031-1.664 2.992-2.422 5.75-4.531 9.047-11.398 9.047-18.828v-39.765c-13.187-0.687-23.711-11.602-23.711-24.953v-35.008c-9.195-5.203-15.422-15.055-15.422-26.351v-67.961c0-8.289 6.719-15.008 15.008-15.008 8.297 0 15.016 6.719 15.016 15.008v67.961c0 0.141 0.117 0.25 0.25 0.25h208.366v-163.148h-208.624v24.805c0 8.289-6.719 15.008-15.008 15.008s-15.008-6.719-15.008-15.008v-39.82c0-8.289 6.719-15.008 15.008-15.008h238.64c8.289 0 15.016 6.719 15.016 15.008v186.21c0 9.836-6.5 18.18-15.422 20.976v32.086c0 13.797-11.227 25.016-25.023 25.016h-0.305v49.070c0 5.586 2.039 11.141 5.758 15.633zM266.743 159.198h-177.773v26.086h177.773zM254.040 299.112c-8.141-9.859-12.625-22.203-12.625-34.742v-49.070h-128.742v39.703c0 16.68-7.461 32.125-20.469 42.398-0.758 0.594-1.539 1.227-2.336 1.883-25.297 21.82-41.39 45.875-50.64 75.679-4.781 15.406-7.203 31.562-7.203 48.015v59.031c0 7.539 5.812 13.883 12.953 14.133 3.703 0.133 7.195-1.203 9.844-3.758 2.656-2.562 4.117-6 4.117-9.687v-67.601c0-13.766 7.648-26.219 19.961-32.484 10.398-5.297 29.758-16.625 42.57-32.992 2.961-3.781 7.375-5.758 11.828-5.758 3.234 0 6.5 1.039 9.242 3.187 6.531 5.109 7.68 14.547 2.57 21.078-15.547 19.867-37.18 33.39-52.586 41.234-2.195 1.125-3.555 3.32-3.555 5.734v173.656c0 7.219 5.867 13.078 13.078 13.078s13.078-5.867 13.078-13.078v-125.507c0-8.297 6.727-15.016 15.016-15.016s15.008 6.719 15.008 15.016v165.718c0 7.211 5.867 13.078 13.086 13.078h0.859c7.211 0 13.078-5.867 13.078-13.078v-165.726c0-8.289 6.719-15.008 15.016-15.008 8.289 0 15.008 6.719 15.008 15.008v147.163c0 7.219 5.867 13.078 13.078 13.078h0.859c7.219 0 13.086-5.867 13.086-13.078v-147.156c0-8.297 6.719-15.016 15.008-15.016s15.016 6.719 15.016 15.016v84.273c0 7.211 5.867 13.078 13.078 13.078h1.070c7.117 0 12.977-5.773 13.070-12.883 0.133-9.953 0.312-19.906 0.484-29.859 0.687-38.039 1.391-77.375-0.766-115.609-2.57-45.703-13.391-80.398-32.141-103.132zM645.007 796.266c-6.477 0.227-12.789-0.836-18.633-3.094v75.172c0 25.656-20.875 46.539-46.539 46.539-5.812 0-11.375-1.086-16.508-3.039v1.617c0 25.664-20.875 46.539-46.539 46.539h-0.961c-18.297 0-34.148-10.617-41.75-26.008-6.383 3.305-13.625 5.18-21.297 5.18h-0.961c-25.656 0-46.531-20.875-46.531-46.531v-27.070c-5.141 1.953-10.703 3.039-16.516 3.039h-1.195c-25.32 0-46.195-20.594-46.523-45.898-0.148-11.109-2.117-121.351 0.359-165.437 3.273-58.203 17.844-103.359 43.305-134.21 4.437-5.375 6.883-12.023 6.883-18.711v-56.89h-2.18c-14.469 0-26.242-11.773-26.242-26.242v-37.414c-9.922-2.477-17.305-11.445-17.305-22.125v-410.67c0-8.289 6.719-15.016 15.008-15.016h267.78c8.289 0 15.008 6.727 15.008 15.016v293.014c0 8.289-6.719 15.008-15.008 15.008s-15.008-6.719-15.008-15.008v-277.999h-237.765v388.467h235.648c1.164 0 2.117-0.953 2.117-2.117v-38.672c0-8.289 6.719-15.008 15.008-15.008s15.008 6.719 15.008 15.008v38.672c0 12.367-7.031 23.109-17.305 28.484v40.359c0 14.477-11.773 26.25-26.242 26.25h-0.359v46.375c0 8.906 3.953 17.125 10.844 22.57 1.078 0.844 2.187 1.75 3.336 2.695 0.070 0.062 0.148 0.125 0.219 0.187 32.726 28.187 54.508 60.804 66.578 99.711 6.32 20.351 9.516 41.664 9.516 63.32v66.25c0.008 25.836-19.875 46.789-45.25 47.687zM393.196 384.518v32.93h203.155v-32.93zM660.242 682.329c0-18.641-2.75-36.953-8.172-54.422-10.484-33.797-28.719-61.054-57.39-85.773-0.922-0.758-1.812-1.477-2.672-2.156-14.148-11.172-22.266-27.984-22.266-46.133v-46.383h-148.124v56.898c0 13.641-4.883 27.078-13.742 37.82-21.305 25.812-33.578 65.101-36.484 116.781-2.422 42.976-1.633 87.148-0.867 129.867 0.203 11.164 0.398 22.336 0.547 33.492 0.117 8.969 7.523 16.266 16.508 16.266h1.195c9.102 0 16.508-7.406 16.508-16.516v-94.562c0-8.289 6.727-15.016 15.016-15.016s15.008 6.727 15.008 15.016v165.132c0 9.102 7.406 16.508 16.516 16.508h0.961c9.102 0 16.516-7.406 16.516-16.508v-165.132c0-8.289 6.719-15.016 15.008-15.016s15.008 6.727 15.008 15.016v185.952c0 9.109 7.414 16.516 16.516 16.516h0.961c9.109 0 16.516-7.406 16.516-16.516v-185.952c0-8.289 6.719-15.016 15.008-15.016s15.016 6.727 15.016 15.016v140.835c0 9.109 7.406 16.516 16.508 16.516 9.109 0 16.516-7.406 16.516-16.516v-194.859c0-3.406-1.914-6.492-5-8.062-17.117-8.719-41.148-23.742-58.39-45.773-5.117-6.531-3.961-15.961 2.57-21.070 2.742-2.156 6-3.195 9.242-3.195 4.453 0 8.867 1.977 11.828 5.766 14.586 18.641 36.57 31.508 48.375 37.515 13.203 6.727 21.398 20.062 21.398 34.82v75.859c0 4.633 1.836 8.969 5.172 12.187s7.75 4.883 12.391 4.734c8.992-0.32 16.305-8.258 16.305-17.687z" />
<glyph unicode="&#xe905;" glyph-name="close" d="M605.814 447.162l398.725 398.737c25.948 25.936 25.948 67.871 0 93.808-25.936 25.936-67.871 25.936-93.808 0l-398.737-398.737-398.725 398.737c-25.948 25.936-67.871 25.936-93.808 0-25.948-25.936-25.948-67.871 0-93.808l398.725-398.737-398.725-398.737c-25.948-25.936-25.948-67.871 0-93.808 12.926-12.938 29.921-19.437 46.904-19.437s33.966 6.499 46.904 19.437l398.725 398.737 398.737-398.737c12.938-12.938 29.921-19.437 46.904-19.437s33.966 6.499 46.904 19.437c25.948 25.936 25.948 67.871 0 93.808z" />
<glyph unicode="&#xe906;" glyph-name="company" d="M993.99-4h-32v509.988c0 12.914-8.262 24.376-20.514 28.46l-339.478 113.16v102.374c0 12.506-7.756 23.7-19.466 28.090l-479.988 179.996c-19.592 7.346-40.534-7.16-40.534-28.090v-933.98h-32c-16.568 0-30-13.432-30-30s13.432-30 30-30c6.738 0 950.98 0 963.98 0 16.568 0 30 13.432 30 30s-13.432 30.002-30 30.002zM302.004-4h-59.998v119.998h59.998v-119.998zM422.002-4h-59.998v119.998h59.998v-119.998zM542 625.986v-629.986h-59.998v149.996c0 16.568-13.432 30-30 30h-239.996c-16.568 0-30-13.432-30-30v-149.996h-59.998v890.69l419.992-157.496v-103.208zM781.994-4h-59.998v119.998h59.998v-119.998zM901.992-4h-59.998v149.996c0 16.568-13.432 30-30 30h-119.998c-16.568 0-30-13.432-30-30v-149.996h-59.998v588.364l299.994-99.998v-488.366zM272.006 295.994h-59.998c-16.568 0-30-13.432-30-30s13.43-30 30-30h59.998c16.568 0 30 13.432 30 30s-13.432 30-30 30zM452.002 295.994h-59.998c-16.568 0-30-13.432-30-30s13.43-30 30-30h59.998c16.568 0 30 13.432 30 30s-13.432 30-30 30zM272.006 415.99h-59.998c-16.568 0-30-13.432-30-30s13.43-30 30-30h59.998c16.568 0 30 13.432 30 30s-13.432 30-30 30zM452.002 415.99h-59.998c-16.568 0-30-13.432-30-30s13.43-30 30-30h59.998c16.568 0 30 13.432 30 30s-13.432 30-30 30zM811.994 295.994h-119.998c-16.568 0-30-13.432-30-30s13.43-30 30-30h119.998c16.568 0 30 13.432 30 30s-13.432 30-30 30zM811.994 415.99h-119.998c-16.568 0-30-13.432-30-30s13.43-30 30-30h119.998c16.568 0 30 13.432 30 30s-13.432 30-30 30zM272.006 535.988h-59.998c-16.568 0-30-13.432-30-30s13.43-30 30-30h59.998c16.568 0 30 13.432 30 30-0.002 16.568-13.432 30-30 30zM452.002 535.988h-59.998c-16.568 0-30-13.432-30-30s13.43-30 30-30h59.998c16.568 0 30 13.432 30 30s-13.432 30-30 30zM272.006 655.986h-59.998c-16.568 0-30-13.432-30-30s13.43-30 30-30h59.998c16.568 0 30 13.432 30 30-0.002 16.568-13.432 30-30 30zM452.002 655.986h-59.998c-16.568 0-30-13.432-30-30s13.43-30 30-30h59.998c16.568 0 30 13.432 30 30s-13.432 30-30 30z" />
<glyph unicode="&#xe907;" glyph-name="diet" d="M931.806 778.018h-133.662l-23.182-253.462c65.472-7.768 133.712 10.62 186.842 50.646v172.82c-0.002 16.566-13.432 29.996-29.998 29.996zM716.004 538.624l21.896 239.394h-225.852c-16.566 0-29.998-13.43-29.998-29.998v-218.454c76.076 28.45 157.272 31.77 233.954 9.058zM708.21 478.226c-67.010 22.184-138.878 20.136-206.15-5.248 205.558-57.684 210.010-386.598 27.438-536.878h402.308c16.566 0 29.998 13.43 29.998 29.998v537.59c-75.626-42.296-168.264-53.9-253.594-25.462zM579.288 333.374c-40.484 82.658-128.38 111.118-212.47 64.932 17.896 115.476 77.448 150.218 77.584 150.418 13.832 9.116 17.654 27.72 8.538 41.554s-27.718 17.658-41.554 8.54c-11.884-8.006-23.97-16.896-41.294-38.612-12.008 23.18-30.064 47.424-56.748 62.83-63.362 36.582-145.56 6.12-149.028 4.806-13.33-5.054-21.264-18.794-18.974-32.864 0.596-3.66 15.312-90.078 78.676-126.658 27.802-16.050 60.616-19.992 92.72-17.040-4.744-17.408-8.61-36.626-11.178-57.794-84.152 51.078-177.486 28.142-220.714-60.108-54.218-110.68-8.282-281.056 99.118-359.682 48.158-35.252 100.66-46.214 148.104-30.984 51.642-16.584 104.44-0.98 148.102 30.984 107.462 78.668 153.296 249.076 99.118 359.678zM809.3 900.006h122.706c16.566 0 29.998 13.43 29.998 29.998s-13.43 29.996-29.998 29.996h-150.084c-15.508 0-28.46-11.822-29.872-27.264l-8.664-94.724h60.244z" />
<glyph unicode="&#xe908;" glyph-name="donation" d="M423.89 726.94c14.15-8.174 32.666-3.31 40.958 11.016 0 0 0 0 0.030 0.030 8.184 14.206 3.498 32.524-10.986 40.928-14.788 8.464-32.934 3.076-40.986-10.958-8.294-14.326-3.342-32.726 10.984-41.016zM560.736 544.010c14.428-8.27 32.696-3.336 40.986 10.986l90 155.888c8.292 14.356 3.37 32.696-10.986 40.986l-363.722 204.084c-14.356 8.32-32.724 3.398-40.986-10.986l-90-155.86c-8.292-14.356-3.37-32.696 10.986-40.986zM360.93 797.956c24.928 43.168 79.94 57.736 122.958 32.93 42.884-24.764 57.886-79.714 32.93-122.93v-0.030c-24.818-42.92-79.98-57.7-122.93-32.93-43.006 24.844-57.772 80.010-32.958 122.96zM587 313c-32.63 0-44.804-34.126-46.292-38.718-3.672-12.882-15.302-21.772-28.708-21.772-13.404 0-25.036 8.89-28.708 21.772-1.488 4.59-13.662 38.718-46.292 38.718-29.542 0-45-22.714-45-45.152 0-31.57 34.124-59.626 99.514-110.572 6.682-5.206 13.486-10.506 20.486-16.006 7 5.5 13.804 10.8 20.486 16.006 65.392 50.948 99.514 79.004 99.514 110.572 0 22.438-15.456 45.152-45 45.152zM932 720h-176.784c-0.89-13.634-4.538-27.020-11.594-39.2l-81.282-140.8h89.66c16.582 0 30-13.418 30-30s-13.418-30-30-30h-480c-16.582 0-30 13.418-30 30s13.418 30 30 30h173.302l-277.658 155.8c-10.998 6.338-20.134 14.604-27.392 24.2h-48.252c-16.582 0-30-13.418-30-30v-724c0-16.582 13.418-30 30-30h840c16.582 0 30 13.418 30 30v724c0 16.582-13.418 30-30 30zM569.364 109.948c-12.34-9.614-25.098-19.554-38.624-30.374-5.478-4.382-12.11-6.574-18.74-6.574s-13.262 2.192-18.74 6.574c-13.526 10.82-26.284 20.76-38.624 30.374-71.194 55.468-122.636 95.546-122.636 157.9 0 58.964 46.122 105.152 105 105.152 29.13 0 54.844-11.268 75-32.724 20.156 21.456 45.87 32.724 75 32.724 58.878 0 105-46.188 105-105.152 0-62.354-51.442-102.432-122.636-157.9z" />
<glyph unicode="&#xe909;" glyph-name="email" d="M96 688c-36.172-37.578-59.438-87.805-62.534-143.415l-0.026-0.585c-10.72-113.92 37.6-240 132.32-348.16 92-104.8 204.48-179.84 316.8-210.88 32.856-9.858 70.646-15.681 109.747-15.999l0.173-0.001c2.658-0.102 5.779-0.161 8.914-0.161 60.236 0 115.446 21.517 158.364 57.283l-0.398-0.323c29.44 23.142 48.175 58.754 48.175 98.741 0 12.655-1.876 24.871-5.366 36.386l0.231-0.887c-10.24 32-55.52 48-81.44 54.88-94.88 23.84-113.6 29.12-158.4 41.6-31.2 8.96-49.76-19.68-61.92-38.72-5.44-8.48-16.96-26.4-22.56-28.16-33.6 8.96-75.040 38.080-118.4 82.4h568.32c17.673 0 32 14.327 32 32v0 592s0 0 0 0c-0.082 3-0.603 5.849-1.5 8.527l0.060-0.207s0 0 0 0c-1.045 3.055-2.455 5.705-4.216 8.079l0.056-0.079s0 0 0 0c-1.729 2.388-3.796 4.404-6.155 6.025l-0.085 0.055c-2.347 1.621-5.049 2.978-7.934 3.935l-0.226 0.065h-1.12c-3.107 2.361-6.721 4.268-10.624 5.529l-0.256 0.071h-800c-3.276-0.068-6.404-0.589-9.36-1.504l0.24 0.064h-1.28c-3.052-0.985-5.705-2.345-8.085-4.059l0.085 0.059c-2.444-1.676-4.511-3.692-6.19-6.008l-0.050-0.072h-0.8c-1.705-2.295-3.115-4.945-4.098-7.794l-0.062-0.206c-1.459-3.697-2.334-7.977-2.4-12.453v-0.027s0 0 0 0zM554.56 183.2c1.44 2.4 3.2 5.12 4.96 7.68 36.32-10.080 60.8-16 145.92-38.080 13.943-2.884 26.284-8.165 37.181-15.439l-0.381 0.239c0.619-3.401 0.973-7.316 0.973-11.313 0-21.419-10.166-40.463-25.936-52.572l-0.157-0.116c-48-42.4-128-52.32-217.28-27.2-100.64 28.16-202.24 96-286.080 191.040s-125.6 203.84-116.64 300.16c4.48 48 22.88 88.8 50.56 110.24 9.819 7.642 21.62 13.232 34.49 15.905l0.55 0.095 12 2.4c9.44 1.92 18.88 3.84 25.44 4.8 0.8-2.24 1.6-5.44 2.72-9.6s28.32-112 43.2-171.84c-36-25.6-91.52-66.72-67.52-112 1.509-2.986 2.945-5.447 4.504-7.818l-0.184 0.298c19.885-33.011 40-61.38 61.979-88.16l-1.019 1.28c48-60.16 122.080-136 197.92-156 48.96-12.16 77.44 32.8 92.8 56zM304 336c-4.8 6.4-9.44 12.48-13.6 18.24l-2.4 2.88-10.88 16-1.92 3.040-8.64 12.96-1.12 1.92c-2.56 4-4.96 7.68-6.72 10.72 13.85 14.535 29.27 27.362 46.050 38.276l0.99 0.604c16 11.52 33.12 23.36 26.88 45.12-8.64 34.88-46.24 185.6-48 193.28-17.12 65.12-48 62.080-102.72 50.88l-12-2.4c-3.36 0-6.56-1.44-9.92-2.4v104.32l348.16-273.76c5.398-4.296 12.316-6.893 19.84-6.893s14.442 2.597 19.905 6.943l-0.065-0.050 348.16 273.76v-493.44zM835.52 864l-307.52-242.56-307.52 242.56z" />
<glyph unicode="&#xe90a;" glyph-name="fund" d="M832 384c-14.39-0.063-28.341-1.809-41.707-5.052l1.227 0.252c2.080 8.48 4 17.12 5.28 25.92 10.485-3.249 22.54-5.12 35.031-5.12 0.059 0 0.119 0 0.178 0h-0.009c0.061 0 0.132 0 0.204 0 70.692 0 128 57.308 128 128s-57.308 128-128 128c-34.76 0-66.285-13.856-89.351-36.346l0.027 0.026c-39.935 53.070-96.649 91.627-162.166 107.901l-1.994 0.419c14.72 107.2 84.96 135.84 88 136.96 6.202 2.297 10.543 8.162 10.543 15.041 0 8.837-7.163 16-16 16-0.050 0-0.1 0-0.151-0.001h-293.112c-8.785-0.068-15.88-7.205-15.88-16 0-6.72 4.142-12.472 10.013-14.842l0.107-0.038c3.040-1.28 72.96-29.76 88-136-69.596-15.799-128.191-55.056-168.421-108.847l-0.539-0.753c-23.057 22.56-54.647 36.48-89.488 36.48-70.692 0-128-57.308-128-128s57.308-128 128-128c0.073 0 0.146 0 0.219 0h-0.011c0.050 0 0.109 0 0.169 0 12.492 0 24.546 1.871 35.898 5.349l-0.867-0.229c1.28-8.8 3.2-17.44 5.28-25.92-12.139 2.991-26.090 4.737-40.439 4.8h-0.041c-97.202 0-176-78.798-176-176v0-192c0-8.837 7.163-16 16-16v0h320c8.837 0 16 7.163 16 16v0 75.2l93.12 66.56c2.474 1.878 4.668 3.818 6.708 5.908l0.012 0.012c13.276-2.342 28.562-3.681 44.16-3.681s30.884 1.339 45.748 3.908l-1.588-0.227c2.052-2.102 4.245-4.042 6.574-5.814l0.146-0.106 93.12-66.56v-75.2c0-8.837 7.163-16 16-16v0h320c8.837 0 16 7.163 16 16v0 192c0 97.202-78.798 176-176 176v0zM832 624c53.019 0 96-42.981 96-96s-42.981-96-96-96c-53.019 0-96 42.981-96 96v0c0 53.019 42.981 96 96 96v0zM192 432c-53.019 0-96 42.981-96 96s42.981 96 96 96c53.019 0 96-42.981 96-96v0c0-53.019-42.981-96-96-96v0zM336 32h-288v176c0 79.529 64.471 144 144 144s144-64.471 144-144v0-12.16l-8.8-5.12-95.040 95.040c-11.183 10.705-26.382 17.295-43.12 17.295s-31.936-6.59-43.143-17.317l0.023 0.022c-11.144-10.977-18.049-26.231-18.049-43.098 0-1.387 0.047-2.763 0.139-4.127l-0.010 0.185c1.168-18.037 9.994-33.804 23.229-44.221l0.131-0.099 163.36-127.040c2.68-2.096 6.097-3.36 9.81-3.36 0.039 0 0.077 0 0.116 0h-0.006c3.489 0.023 6.708 1.16 9.325 3.072l-0.045-0.032 1.92 1.28zM442.56 183.84l-117.44-83.84-153.92 119.68c-7.031 5.373-11.521 13.762-11.521 23.2 0 16.083 13.037 29.12 29.12 29.12 0.057 0 0.113 0 0.17 0h-0.009c0.010 0 0.021 0 0.032 0 8.038 0 15.319-3.239 20.61-8.482l-0.002 0.002 103.84-104c2.894-2.887 6.889-4.673 11.3-4.673 3.035 0 5.873 0.845 8.291 2.313l-0.071-0.040 91.36 54.72c2.46 1.619 5.476 2.583 8.717 2.583 4.564 0 8.682-1.911 11.597-4.976l0.006-0.007c3.012-2.913 4.882-6.991 4.882-11.506 0-0.569-0.030-1.13-0.087-1.683l0.006 0.069c-0.225-5.171-2.873-9.68-6.828-12.446l-0.052-0.034zM556.8 231.84c-8.776-8.701-14.208-20.761-14.208-34.090 0-1.235 0.047-2.459 0.138-3.671l-0.010 0.161c-9.221-1.146-19.894-1.8-30.72-1.8s-21.499 0.654-31.982 1.925l1.262-0.125c0.128 1.313 0.2 2.839 0.2 4.382 0 26.51-21.49 48-48 48-9.511 0-18.375-2.766-25.833-7.537l0.193 0.115-39.84-24.32c-2.306 66.225-41.23 122.84-97.061 150.425l-1.019 0.455c-5.292 15.199-9.397 33.016-11.564 51.427l-0.116 1.213c37.344 22.805 61.893 63.34 61.893 109.608 0 24.082-6.651 46.611-18.215 65.851l0.322-0.578c38.82 55.727 98.046 94.921 166.633 106.821l1.527 0.219c7.7 1.248 13.508 7.848 13.508 15.805 0 0.519-0.025 1.033-0.073 1.54l0.005-0.065c-2.608 57.309-26.554 108.567-64.019 146.419l0.019-0.019h190.4c-37.614-38.085-61.595-89.709-63.985-146.912l-0.015-0.448c-0.029-0.363-0.046-0.786-0.046-1.213 0-7.835 5.631-14.354 13.067-15.732l0.099-0.015c68.243-13.238 125.695-51.851 163.291-105.415l0.549-0.825c-11.776-18.587-18.885-41.152-19.199-65.355l-0.001-0.085c0.045-46.299 24.664-86.837 61.515-109.28l0.565-0.32c-2.283-19.624-6.388-37.441-12.221-54.456l0.541 1.816c-56.979-27.958-96.030-84.592-98.391-150.575l-0.009-0.305-40.16 24.16c-7.087 4.358-15.672 6.939-24.86 6.939-13.374 0-25.471-5.47-34.175-14.294l-0.005-0.005zM581.44 183.84c-3.928 2.737-6.552 7.111-6.878 12.112l-0.002 0.048c-0.052 0.484-0.082 1.046-0.082 1.614 0 4.515 1.87 8.592 4.877 11.501l0.004 0.004c2.907 2.966 6.954 4.805 11.431 4.805 0.144 0 0.287-0.002 0.43-0.006h-0.021c0.015 0 0.033 0 0.051 0 3.121 0 6.034-0.894 8.495-2.439l-0.067 0.039 91.36-54.72c2.347-1.428 5.185-2.273 8.22-2.273 4.412 0 8.406 1.785 11.301 4.673v0l103.84 104c5.349 5.067 12.59 8.183 20.56 8.183s15.211-3.116 20.574-8.196l-0.014 0.013c5.297-5.25 8.576-12.527 8.576-20.571 0-9.315-4.398-17.602-11.23-22.9l-0.066-0.049-153.92-119.68zM976 32h-288v36.32l1.92-1.28c2.572-1.88 5.791-3.017 9.274-3.040h0.006c0.033 0 0.071 0 0.11 0 3.713 0 7.131 1.265 9.845 3.387l-0.035-0.027 163.36 127.040c13.427 10.49 22.311 26.26 23.51 44.134l0.010 0.186c0.088 1.224 0.138 2.651 0.138 4.091 0 16.793-6.844 31.987-17.894 42.945l-0.004 0.004c-11.183 10.705-26.382 17.295-43.12 17.295s-31.936-6.59-43.143-17.317l0.023 0.022-95.040-95.040-8.96 5.12v12.16c0 79.529 64.471 144 144 144s144-64.471 144-144v0zM512 496c8.837 0 16-7.163 16-16v0h32c-0.060 20.72-13.24 38.347-31.666 45.014l-0.334 0.106v18.88h-32v-18.88c-18.606-6.892-31.628-24.486-31.628-45.121 0-26.379 21.279-47.788 47.608-47.998h0.020c8.837 0 16-7.163 16-16s-7.163-16-16-16c-8.837 0-16 7.163-16 16v0h-32c0.060-20.72 13.24-38.347 31.666-45.014l0.334-0.106v-18.88h32v18.88c18.606 6.892 31.628 24.486 31.628 45.121 0 26.379-21.279 47.788-47.608 47.998h-0.020c-8.837 0-16 7.163-16 16s7.163 16 16 16v0zM672 448c0 88.366-71.634 160-160 160s-160-71.634-160-160c0-88.366 71.634-160 160-160v0c88.366 0 160 71.634 160 160v0zM512 320c-70.692 0-128 57.308-128 128s57.308 128 128 128c70.692 0 128-57.308 128-128v0c0-70.692-57.308-128-128-128v0z" />
<glyph unicode="&#xe90b;" glyph-name="fundraiser" d="M384.128 577.984l31.744-3.968 14.256 113.984h99.744l14.256-113.984 31.744 3.968-15.024 120.24 31.152 31.152v166.624c0 25.568-22.432 48-48 48h-96c-25.568 0-48-22.432-48-48v-16c-17.648 0-32-14.352-32-32v-118.624l31.152-31.152zM400 848h32v-64h32v64c0 17.648-14.352 32-32 32v16c0 8.080 7.92 16 16 16h96c8.080 0 16-7.92 16-16v-153.376l-22.624-22.624h-114.752l-22.624 22.624zM256.128 286.016l31.744 3.968-15.024 120.24 31.152 31.152v166.624c0 25.568-22.432 48-48 48h-96c-25.568 0-48-22.432-48-48v-16c-17.648 0-32-14.352-32-32v-118.624l31.248-31.248-31.152-280.368 31.808-3.536 30.432 273.776h99.552zM134.624 432l-22.624 22.624v105.376h32v-64h32v64c0 17.648-14.352 32-32 32v16c0 8.080 7.92 16 16 16h96c8.080 0 16-7.92 16-16v-153.376l-22.624-22.624zM656.080 385.6l31.84-3.184 14.56 145.6h99.552l46.112-338.16 31.712 4.336-46.928 344.144 31.072 31.040v166.624c0 25.568-22.432 48-48 48h-96c-25.568 0-48-22.432-48-48v-16c-17.648 0-32-14.352-32-32v-118.624l31.328-31.328zM672 688h32v-64h32v64c0 17.648-14.352 32-32 32v16c0 8.080 7.92 16 16 16h96c8.080 0 16-7.92 16-16v-153.376l-22.624-22.624h-114.752l-22.624 22.624zM848 160h-117.856c1.904 25.616-1.6 53.824-10.816 84.592-37.312 124.4-122.144 158.496-165.2 167.84l41.312 68.864-6.944 8.688c-70.448 88.064-204.432 39.104-210.128 36.992l-19.984-7.504 21.888-29.2-57.904-19.296 84.736-84.72c-41.952-31.184-145.136-124.176-103.776-258.272h-79.328c-28.704 0-48-19.296-48-48v-16c0-28.704 19.296-48 48-48h64c7.328 0 16-8.672 16-16 0-25.12 22.88-48 48-48h352c30.96 0 48 17.040 48 48v32c0 8.080 7.92 16 16 16h80c26.928 0 48 21.088 48 48v16c0 26.928-21.072 48.016-48 48.016zM381.632 457.008l18.896 6.304 18.672-24.912 25.6 19.2-34.16 45.552c34.384 8.352 103.040 17.712 145.6-24.992l-38.16-63.584-80.592-13.44zM437.728 368.736l91.36 15.216c10.688-0.432 117.52-8.352 159.568-148.56 14.768-49.2 13.36-89.936-4.176-121.072-22.256-39.504-64.032-50.704-64.368-50.8-2.416-0.608-242.192-58.736-284.96 69.536-45.264 135.888 82.576 223.040 102.576 235.68zM864 96c0-9.28-6.736-16-16-16h-80c-26.016 0-48-21.984-48-48v-32c0-13.312-2.688-16-16-16h-352c-7.168 0-16 8.816-16 16 0 25.12-22.88 48-48 48h-64c-11.056 0-16 4.944-16 16v16c0 11.056 4.944 16 16 16h93.136c37.008-62.768 115.856-78.4 184.976-78.384 64.688 0 120.768 13.616 125.76 14.864 2.24 0.56 54.992 14.256 84.224 65.664 5.328 9.36 9.44 19.344 12.496 29.872h123.408c9.264 0 16-6.72 16-16zM496 96h32v32h62.4v96h-140.8v32h142.4v32h-64v32h-32v-32h-78.4v-96h140.8v-32h-142.4v-32h80z" />
<glyph unicode="&#xe90c;" glyph-name="generous" d="M839.172 177.216c7.212 12.518 9.14 27.988 3.952 42.654-9.46 26.596-39.14 40.452-66.166 30.89-0.080-0.028-0.158-0.056-0.238-0.086l-49.448-18.434c0.358 6.546-0.486 13.216-2.75 19.648-4.604 12.95-14.006 23.282-26.468 29.094-12.44 5.802-26.55 6.418-39.722 1.73-0.072-0.026-0.144-0.052-0.214-0.078l-92.148-34.36c0.222 6.056-0.69 12.152-2.774 18.020-4.338 12.216-13.188 22.016-24.922 27.592-11.96 5.686-25.528 6.326-38.378 1.746l-168.404-62.4c-6.498 2.396-12.512 4.888-18.344 7.318-37.826 15.766-65.948 24.49-137.976 0.45-3.532 18.67-19.94 32.844-39.622 32.844h-79.128c-22.25 0-40.352-18.102-40.352-40.352v-76.452c0-8.348 6.766-15.116 15.114-15.116s15.114 6.768 15.114 15.116v76.452c0 5.58 4.542 10.122 10.124 10.122h79.126c5.486 0 10.122-4.634 10.122-10.122v-231.346c0-5.488-4.636-10.122-10.122-10.122h-79.126c-5.58 0-10.124 4.54-10.124 10.122v85.338c0 8.348-6.766 15.116-15.114 15.116s-15.114-6.768-15.114-15.116v-85.338c0-22.25 18.102-40.352 40.352-40.352h79.126c18.746 0 34.498 12.868 39.010 30.22 43.468-1.338 67.75-5.942 119.356-21.384l90.712-27.124c16.862-5.014 39.356-7.506 61.962-7.506 23.69 0 47.506 2.738 65.070 8.18 46.466 14.354 120.418 42.544 149.69 54.446l180.884 73.61c13.352 5.456 23.32 16.488 28.062 31.066 5.532 17.002 3.082 37.082-6.38 52.376-6.088 9.888-14.628 17.132-24.742 21.538zM699.59 189.654c0.68 0.2 1.352 0.45 2.010 0.75l85.548 31.894c11.496 4.008 23.556-1.492 27.486-12.532 3.85-10.89-1.882-22.886-12.778-26.74-0.076-0.028-0.154-0.056-0.23-0.084l-217.688-80.988c-0.008 4.71-0.494 9.476-1.548 14.22-2.132 9.608-6.274 18.2-11.968 25.324zM668.558 254.26c5.616 1.97 11.55 1.73 16.722-0.68 5.068-2.362 8.888-6.562 10.744-11.778 3.078-8.742-0.068-18.59-7.474-24l-150.166-55.984-61.174 21.094zM510.218 267.218c5.060 1.802 10.414 1.58 15.078-0.638 4.434-2.108 7.778-5.802 9.412-10.404 1.646-4.64 1.366-9.678-0.788-14.186-2.16-4.52-5.92-7.922-10.59-9.578-0.34-0.122-0.664-0.268-0.992-0.41l-90.080-33.59-55.804 19.242zM841.546 112.654c-1.376-4.232-4.358-9.824-10.728-12.426l-180.862-73.602c-28.844-11.73-101.64-39.484-147.234-53.568-29.068-9.008-80.226-9.274-109.46-0.584l-90.686 27.116c-53.942 16.14-80.728 21.176-126.68 22.622v187.068c72.194 25.586 93.746 16.646 125.618 3.362 7.736-3.224 232.142-81.174 232.142-81.174 0.16-0.056 0.322-0.108 0.484-0.158 13.484-4.146 17.594-16.55 18.734-21.69 1.912-8.614 0.598-17.254-3.402-24.12-0.038-0.064-0.074-0.132-0.11-0.196-1.436-2.422-3.202-4.622-5.29-6.512-11.336-10.248-31.324-11.352-56.298-3.106l-127.604 42.1c-7.924 2.618-16.474-1.692-19.090-9.618-2.614-7.928 1.692-16.474 9.62-19.090l127.6-42.098c15.172-5.010 28.18-6.962 39.244-6.962 24.1 0 38.964 9.264 46.804 16.352 3.030 2.74 5.732 5.778 8.094 9.052l221.834 82.53c0.208 0.070 0.418 0.124 0.624 0.202 14.928 5.692 34.142 6.494 43.284-8.354 4.856-7.844 6.174-18.5 3.362-27.146zM1003.214 735.066l-108.226 203.53c-5.032 9.494-13.486 16.46-23.802 19.616-10.302 3.152-21.198 2.112-30.654-2.924l-69.684-37.036c-19.206-10.234-26.696-33.904-17.154-53.278-7.468-4.026-14.32-7.766-20.624-11.206-55.556-30.318-72.322-39.468-147.34-48.408-8.29-0.988-14.208-8.508-13.22-16.798 0.916-7.682 7.44-13.328 14.99-13.328 0.598 0 1.2 0.036 1.808 0.108 80.804 9.63 101.89 21.138 158.242 51.89 6.21 3.388 12.95 7.066 20.278 11.018l71.812-135.082c-29.036-17.168-47.778-35.050-62.87-59.496-25.226-40.928-56.312-56.688-86.374-71.93-13.404-6.796-27.262-13.822-40.174-22.86l-122.354-85.776c-3.27-2.012-6.452-3.56-9.474-4.64-0.258-0.076-0.516-0.156-0.77-0.248-4.848-1.614-9.266-1.998-12.918-1.018-4.934 1.322-9.212 5.326-12.706 11.894-8.712 16.364 4.34 64.62 28.084 87.976l76.618 75.482c0.316 0.31 0.618 0.636 0.904 0.972 13.144 15.448 12.522 27.956 9.686 35.73-4.748 13.012-18.492 21.51-40.866 25.262-63.692 10.65-88.36-5.384-103.544-26.442-13.81 8.076-28.69 14.294-44.41 18.544-8.85 2.402-17.844 4.11-26.91 5.148l1.624 3.008c27.26 50.628 68.358 65.472 125.834 73.016 8.278 1.086 14.106 8.676 13.020 16.952-1.088 8.278-8.684 14.106-16.954 13.020-56.324-7.392-113.298-23.248-148.51-88.644l-9.018-16.708c-35.178-2.702-69.522-15.868-97.56-37.592-31.438-24.356-53.534-57.566-63.904-96.032-26.060-96.55 31.286-196.302 127.836-222.362 15.776-4.254 31.688-6.3 47.388-6.298 68.178 0.002 132.278 38.578 163.072 102.262 3.256 1.488 6.526 3.228 9.8 5.268 0.23 0.144 0.456 0.294 0.68 0.45l122.698 86.016c11.148 7.804 23.462 14.048 36.5 20.658 32.222 16.338 68.744 34.854 98.43 83.022 12.108 19.608 27.508 34.3 51.362 48.624l8.628-16.228c7.226-13.562 21.184-21.304 35.606-21.302 6.37 0 12.832 1.512 18.84 4.696l69.596 37.020c9.492 5.034 16.458 13.488 19.614 23.804 3.15 10.3 2.11 21.186-2.93 30.65zM561.434 664.698c11.138-1.868 15.584-4.538 17.054-5.686-0.37-0.948-1.282-2.736-3.51-5.428l-48.73-48.006c-10.342 17.050-23.466 32.332-38.732 45.124 9.208 12.632 24.912 22.192 73.918 13.996zM331.804 365.608c-80.454 21.716-128.242 104.842-106.522 185.304 17.268 64.062 75.64 110.020 141.932 111.76 14.62 0.366 29.19-1.39 43.354-5.234 17.5-4.732 33.724-12.36 48.216-22.676 18.71-13.316 34.234-30.906 45.206-51.116l-5.112-5.036c-29.558-29.072-51.122-90.742-33.562-123.726 9.456-17.762 22.38-24.424 31.558-26.886 0.094-0.026 0.192-0.042 0.286-0.066-35.402-53.534-101.748-79.48-165.356-62.324zM977.234 713.252c-0.79-2.584-2.52-4.692-4.886-5.948l-69.596-37.020c-4.896-2.598-10.992-0.748-13.582 4.11l-108.242 203.616c-2.554 4.796-0.66 11.008 4.122 13.556l69.682 37.034c1.44 0.766 3.018 1.156 4.624 1.156 0.994 0 2-0.15 2.988-0.452 2.584-0.79 4.692-2.52 5.946-4.884l108.236-203.546c0.002-0.004 0.004-0.006 0.006-0.010 1.238-2.332 1.488-5.034 0.702-7.612z" />
<glyph unicode="&#xe90d;" glyph-name="gift-box" d="M640 912h32v-160h-32zM720 656h32v-64h-32zM720 912h32v-224h-32zM418.979 615.872l152.416 88 112-193.984-152.416-88zM155.715 463.864l152.416 88 112-193.984-152.416-88zM376.736 906.752c-8.832 3.328-19.041 5.255-29.699 5.255-47.806 0-86.56-38.754-86.56-86.56 0-5.409 0.496-10.702 1.445-15.836l-0.082 0.533 13.728-73.872-57.232 48.912c-14.946 12.609-34.422 20.273-55.689 20.273-47.841 0-86.624-38.783-86.624-86.624 0-42.535 30.657-77.91 71.081-85.233l0.528-0.079c4.483-0.821 9.643-1.29 14.912-1.29 10.728 0 21.002 1.945 30.487 5.503l-0.599-0.197 115.2 43.2 95.088 78.304c11.447 9.631 20.291 21.997 25.564 36.106l0.196 0.598c3.29 8.794 5.194 18.956 5.194 29.562 0 37.205-23.43 68.939-56.34 81.249l-0.599 0.196zM181.328 667.536c-5.579-2.103-12.027-3.321-18.76-3.321-30.186 0-54.656 24.47-54.656 54.656s24.47 54.656 54.656 54.656c13.392 0 25.659-4.816 35.163-12.812l-0.083 0.068 70.88-60.592zM398.4 806.624c-3.401-9.207-8.892-16.959-15.924-22.961l-0.076-0.063-72-59.28-17.072 91.552c-0.522 2.835-0.82 6.097-0.82 9.429 0 30.168 24.456 54.624 54.624 54.624s54.624-24.456 54.624-54.624c0-6.702-1.207-13.122-3.415-19.054l0.123 0.378zM142.080 602c-0.752 0.128-1.472 0.352-2.224 0.512l-75.856-43.792 48-83.2 180.128 104-29.008 50.256-59.472-22.272c-12.197-4.617-26.298-7.29-41.023-7.29-7.26 0-14.368 0.65-21.269 1.894l0.724-0.108zM447.84 373.872l55.424 32-154.336 267.328-25.040-20.624-30.384-11.376zM459.2 786.912c-0.256-0.72-0.416-1.456-0.672-2.176-7.471-20.135-19.556-37.070-35.023-50.126l-0.177-0.146-49.344-40.64 28.992-50.256 180.144 104-48 83.2zM853.28 224l10.72-16h96v-208h-627.712c-29.654 0.001-56.616 11.527-76.651 30.343l0.059-0.055-174.864 165.632c-10.372 9.737-16.833 23.535-16.833 38.842 0 12.628 4.397 24.23 11.745 33.356l-0.080-0.103c9.834 12.227 24.794 19.986 41.566 19.986 12.628 0 24.228-4.398 33.353-11.746l-0.103 0.080 162.816-144.224c14.047-12.485 32.653-20.112 53.042-20.112 0.022 0 0.044 0 0.066 0h209.597v32h-208c-26.51 0-48 21.49-48 48v0c0 26.51 21.49 48 48 48v0h208c29.478 39.034 75.796 64 127.944 64 0.020 0 0.039 0 0.059 0h-0.003c62.011-0.034 116.662-31.515 148.874-79.359l0.406-0.641z" />
<glyph unicode="&#xe90e;" d="M60.191 582.392v-370.172c0-27.243 6.336-54.112 18.506-78.485s18.506-51.242 18.506-78.485v-62.011c0-14.979 12.143-27.122 27.122-27.122h263.077c14.979 0 27.122 12.143 27.122 27.121v42.365c0 27.243 6.336 54.112 18.506 78.485s18.506 51.242 18.506 78.485v389.819h-391.346z" />
<glyph unicode="&#xe90f;" d="M60.192 314.664c-2.921 20.212 0.324 41.976 9.916 60.99 4.578 9.621 10.85 18.409 17.939 26.454 7.394 8.129 15.672 14.268 23.16 20.848 31.277 25.646 63.3 50.39 98.33 71.506-27.245-30.509-57.495-57.391-88.493-83.371-7.902-6.511-15.944-12.482-22.483-19.056-6.859-6.6-12.68-14.209-17.988-22.226-10.308-16.233-17.288-34.941-20.382-55.146z" />
<glyph unicode="&#xe910;" d="M208.077 390.783l-25.894-40.043c-1.751-2.715-4.491-6.987-6.167-10.672-3.704-7.711-5.993-16.008-6.792-24.348-1.623-16.697 2.955-33.517 12.22-46.688 5.052-7.104 9.57-11.055 13.832-15.724l13.060-13.762c16.252-17.158 28.676-38.561 35.595-62.107 3.618-11.748 5.161-24.021 6.822-36.75l5.109-37.805 0.663 38.143c0.279 12.569 0.648 25.738-1.276 38.8-3.512 26.094-13.357 51.79-28.864 74.183l-10.944 15.748c-3.599 5.261-7.733 10.69-9.348 14.389-4.055 8.411-4.856 17.951-2.568 26.339 1.141 4.192 3 8.076 5.421 11.463 1.333 1.902 2.266 2.816 4.314 5.174l31.646 35.669z" />
<glyph unicode="&#xe911;" d="M364.625 582.392v-285.76c0-147.693-119.729-267.422-267.422-267.422v0-35.971c0-14.979 12.143-27.122 27.122-27.122h263.077c14.979 0 27.121 12.143 27.121 27.121v42.365c0 28.128 7.466 55.482 19.657 80.831 11.42 23.746 17.358 49.768 17.358 76.14v389.818z" />
<glyph unicode="&#xe912;" d="M963.809 582.392v-370.172c0-27.243-6.336-54.112-18.506-78.485s-18.506-51.242-18.506-78.485v-62.011c0-14.979-12.143-27.122-27.122-27.122h-263.077c-14.979 0-27.122 12.143-27.122 27.121v42.365c0 27.243-6.336 54.112-18.506 78.485s-18.506 51.242-18.506 78.485v389.819h391.346z" />
<glyph unicode="&#xe913;" d="M815.923 390.783l25.894-40.043c1.751-2.715 4.491-6.987 6.167-10.672 3.704-7.711 5.993-16.008 6.792-24.348 1.623-16.697-2.955-33.517-12.22-46.688-5.052-7.104-9.57-11.055-13.832-15.724l-13.060-13.762c-16.252-17.158-28.676-38.561-35.595-62.107-3.618-11.748-5.161-24.021-6.822-36.75l-5.109-37.805-0.663 38.143c-0.279 12.569-0.648 25.738 1.276 38.8 3.512 26.094 13.357 51.79 28.864 74.183l10.944 15.748c3.599 5.261 7.733 10.69 9.348 14.389 4.055 8.411 4.856 17.951 2.568 26.339-1.141 4.192-3 8.076-5.421 11.463-1.333 1.902-2.266 2.816-4.314 5.174l-31.646 35.669z" />
<glyph unicode="&#xe914;" d="M865.972 582.392v-401.41c0-82.442-66.833-149.275-149.275-149.275h-107.224v-38.469c0-14.979 12.143-27.122 27.122-27.122h263.077c14.981 0 27.125 12.144 27.125 27.125v62.008c0 28.135 7.469 55.494 19.661 80.85 11.415 23.74 17.349 49.755 17.349 76.119v370.172z" />
<glyph unicode="&#xe915;" d="M963.808 314.664c2.921 20.212-0.324 41.976-9.916 60.99-4.578 9.621-10.85 18.409-17.939 26.454-7.394 8.129-15.672 14.268-23.16 20.848-31.277 25.646-63.3 50.39-98.33 71.506 27.245-30.509 57.495-57.391 88.493-83.371 7.902-6.511 15.944-12.482 22.483-19.056 6.859-6.6 12.68-14.209 17.988-22.226 10.308-16.233 17.288-34.941 20.382-55.146z" />
<glyph unicode="&#xe916;" d="M993.691 654.352c-9.154-260.533-344.704-481.455-450.251-544.624-19.407-11.615-43.409-11.656-62.817-0.043-106.926 63.986-450.506 290.229-450.506 555.523 0 146.363 118.674 264.675 264.679 264.675 89.904 0 169.737-44.592 217.198-113.281 49.833 72.106 134.943 117.659 230.354 112.947 143.34-7.079 256.381-131.771 251.342-275.197z" />
<glyph unicode="&#xe917;" d="M993.882 665.208c0-265.265-343.251-491.339-450.357-555.425-19.501-11.668-43.639-11.64-63.152 0.009-22.814 13.62-56.316 34.56-94.962 61.666 103.933 61.855 453.116 289.49 453.116 557.042 0 80.193-35.601 152.116-92.063 200.303 138.095-8.63 247.418-122.987 247.418-263.595z" />
<glyph unicode="&#xe918;" d="M303.825 804.026c-6.167 0-11.287 4.864-11.55 11.083-0.264 6.377 4.691 11.768 11.076 12.040 2.492 0.105 4.992 0.158 7.514 0.158 6.385 0 11.565-5.18 11.565-11.565s-5.18-11.565-11.565-11.565c-2.191 0-4.375-0.053-6.551-0.143-0.166-0.008-0.324-0.008-0.489-0.008z" />
<glyph unicode="&#xe919;" d="M144.262 637.581c-6.385 0-11.565 5.18-11.565 11.565 0 69.677 40.99 133.353 104.433 162.229 5.805 2.658 12.68 0.075 15.315-5.737 2.643-5.813 0.075-12.672-5.737-15.315-55.206-25.126-90.88-80.542-90.88-141.176 0-6.385-5.18-11.565-11.565-11.565z" />
<glyph unicode="&#xe91a;" d="M60.191 249.345v65.319c0 35.465 15.8 69.086 43.103 91.721l106.242 88.077c14.708 12.193 37.106 4.23 40.815-14.512v0c7.168-36.217-1.517-73.77-23.857-103.163l-29.692-39.067c-15.164-19.951-14.687-47.693 1.154-67.111l18.524-22.706c21.634-26.518 34.356-59.182 36.357-93.347l3.028-51.672z" />
<glyph unicode="&#xe91b;" d="M144.747 440.816c3.546-6.939 8.636-12.336 15.42-15.729 24.211-12.182 58.906 7.71 77.41 44.719 3.396 6.785 6.17 13.878 8.019 20.663-8.173 10.64-24.516 13.57-36.081 4.009z" />
<glyph unicode="&#xe91c;" d="M963.809 249.345v65.319c0 35.465-15.8 69.086-43.103 91.721l-106.242 88.077c-14.708 12.193-37.106 4.23-40.815-14.512v0c-7.168-36.217 1.517-73.77 23.857-103.163l29.692-39.067c15.164-19.951 14.687-47.693-1.154-67.111l-18.524-22.706c-21.634-26.518-34.356-59.182-36.357-93.347l-3.028-51.672z" />
<glyph unicode="&#xe91d;" d="M963.755 314.679v-65.382l-97.766-73.093v138.474c0 35.466-15.883 69.082-43.177 91.751l-51.351 42.559c-0.305 2.005-0.305 4.009-0.305 6.014 0 8.328 0.772 16.654 2.466 24.981 3.701 18.659 26.059 26.678 40.862 14.495l106.248-88.049c27.294-22.668 43.023-56.284 43.023-91.751z" />
<glyph unicode="&#xe91e;" d="M879.253 440.816c-3.546-6.939-8.636-12.336-15.42-15.729-24.211-12.182-58.906 7.71-77.41 44.719-3.396 6.785-6.17 13.878-8.019 20.663 8.173 10.64 24.516 13.57 36.081 4.009z" />
<glyph unicode="&#xe91f;" d="M131.537 156.354c-4.247 0-8.328 2.342-10.353 6.4-10.044 20.119-15.352 42.632-15.352 65.107v16.407c0 6.385 5.18 11.565 11.565 11.565s11.565-5.18 11.565-11.565v-16.407c0-18.906 4.465-37.85 12.913-54.776 2.854-5.715 0.535-12.657-5.18-15.511-1.656-0.828-3.418-1.22-5.158-1.22z" />
<glyph unicode="&#xe920;" d="M117.397 275.386c-6.385 0-11.565 5.18-11.565 11.565v3.885c0 6.385 5.18 11.565 11.565 11.565s11.565-5.18 11.565-11.565v-3.885c0-6.385-5.18-11.565-11.565-11.565z" />
<glyph unicode="&#xe921;" glyph-name="hand-heart" d="M753.664 190.976c7.168 0 13.312 3.072 18.432 7.168l40.96 40.96c34.816 34.816 38.912 89.088 12.288 129.024-3.072 4.096-5.12 9.216-5.12 15.36 0 25.6 0 105.472 0 147.456 0 26.624 19.456 51.2 46.080 53.248 30.72 3.072 56.32-21.504 56.32-51.2v-276.48c0-18.432-9.216-46.080-21.504-60.416l-119.808-148.48c-5.12-6.144-12.288-9.216-19.456-9.216h-190.464c-14.336 0-25.6 11.264-25.6 25.6v115.712c0 6.144 3.072 14.336 7.168 18.432l149.504 149.504c20.48 20.48 52.224 20.48 72.704 0 19.456-20.48 20.48-52.224 0-72.704l-40.96-40.96c-15.36-15.36-4.096-43.008 19.456-43.008zM270.336 190.976c-7.168 0-13.312 3.072-18.432 7.168l-40.96 40.96c-34.816 34.816-38.912 89.088-12.288 129.024 3.072 4.096 5.12 9.216 5.12 15.36 0 25.6 0 105.472 0 147.456 0 26.624-19.456 51.2-46.080 53.248-30.72 3.072-56.32-21.504-56.32-51.2v-276.48c0-18.432 9.216-46.080 21.504-60.416l118.784-147.456c5.12-6.144 12.288-9.216 19.456-9.216h189.44c14.336 0 25.6 11.264 25.6 25.6v114.688c0 6.144-3.072 14.336-7.168 18.432l-148.48 149.504c-20.48 20.48-52.224 20.48-72.704 0-19.456-20.48-20.48-52.224 0-72.704l40.96-40.96c16.384-15.36 5.12-43.008-18.432-43.008zM632.832 847.36c-38.912 0-73.728-13.312-102.4-34.816-11.264-8.192-26.624-8.192-36.864 0-24.576 18.432-54.272 30.72-86.016 33.792-121.856 12.288-210.944-108.544-177.152-225.28 27.648-97.28 124.928-184.32 269.312-250.88 8.192-4.096 17.408-4.096 25.6 0 171.008 79.872 276.48 188.416 276.48 308.224 0 93.184-75.776 168.96-168.96 168.96z" />
<glyph unicode="&#xe922;" glyph-name="hands" d="M810.806 235.74c-21.714 7.062-44.828 3.5-63.412-9.774l-155.136-110.812c-32.466-23.192-75.030-26.974-111.082-9.876l-64.762 30.722h64.232c39.158 0 70.912 32.322 69.98 71.688-0.904 38.214-33.068 68.312-71.292 68.312h-233.964c-30.436 0-60.91-7.108-88.212-20.568-25.32-12.482-53.004-19.432-81.232-19.432h-45.926c-16.568 0-30-13.432-30-30v-200c0-16.568 13.432-30 30-30h45.924c27.71 0 55.46-6.55 80.25-18.946 27.55-13.772 58.392-21.054 89.196-21.054h260.338c62.958 0 125.138 21.104 175.088 59.424l151.334 116.096c24.080 18.472 33.81 50.228 24.212 79.018-7.22 21.666-23.818 38.14-45.536 45.202zM517.834 538.254l-5.834-5.834-5.834 5.834c-28.994 28.994-76.004 28.994-104.998 0s-28.994-76.004 0-104.998l93.984-92.646c9.344-9.212 24.354-9.212 33.698 0l93.984 92.646c28.994 28.994 28.994 76.004 0 104.998-28.996 28.994-76.006 28.994-105 0zM994 920h-45.924c-27.71 0-55.46 6.55-80.25 18.946-27.55 13.772-58.392 21.054-89.196 21.054h-260.338c-62.958 0-125.138-21.104-175.088-59.424l-151.332-116.096c-24.080-18.472-33.81-50.228-24.212-79.018 7.22-21.666 23.818-38.14 45.536-45.202 21.714-7.062 44.828-3.5 63.412 9.774l155.136 110.812c32.466 23.192 75.030 26.974 111.082 9.876l64.76-30.722h-64.232c-39.158 0-70.912-32.322-69.98-71.688 0.904-38.214 33.068-68.312 71.292-68.312h233.964c30.436 0 60.912 7.108 88.212 20.568 25.318 12.482 53.002 19.432 81.23 19.432h45.928c16.568 0 30 13.432 30 30v200c0 16.568-13.432 30-30 30z" />
<glyph unicode="&#xe923;" glyph-name="health-care" d="M358.801 95.928c18.467-16.214 37.53-32.943 57.139-50.286 0.133-0.118 0.27-0.239 0.407-0.357l65.234-56.348c8.74-7.551 19.587-11.325 30.435-11.325s21.698 3.777 30.438 11.325l65.221 56.348c0.137 0.118 0.27 0.236 0.403 0.354 129.136 114.204 225.956 201.635 296.004 286.907 81.814 99.592 119.921 189.64 119.921 283.384 0 169.605-132.854 302.459-302.453 302.459-76.227 0-151.545-28.703-209.534-78.459-58.005 49.759-133.323 78.459-209.553 78.459-169.605 0.003-302.463-132.854-302.463-302.456 0-205.015 142.74-330.324 358.801-520.004zM325.778 541.108h124.145v124.151h124.151v-124.151h124.148v-124.148h-124.148v-124.145h-124.151v124.145h-124.145v124.148z" />
<glyph unicode="&#xe924;" glyph-name="healthy-food" d="M501.822 682.66c15.26-24.8 25.16-52.86 28.7-82.040l132.92 160.34c21.76 26.26 51.52 44.52 84.3 52.32-29.48 55.98-88.2 93.72-155.74 93.72-50.264-0.272-90.882-12.53-127-37.98 23.38-28.52 38.3-62.5 43.52-99.34 4.18-29.58 1.86-59.080-6.7-87.020zM37.7 535h289.442l-61 61.58h-111.462c-16.24 0-29.4 13.16-29.4 29.4s13.16 29.4 29.4 29.4h52.66l-98.8 98.82c-11.48 11.48-11.48 30.1 0.020 41.58 11.48 11.48 30.1 11.48 41.58 0l98.78-98.8v52.66c0 16.24 13.16 29.4 29.4 29.4s29.42-13.16 29.42-29.4v-111.48l104.76-103.16h53.46c14.42 47.84 2.8 101.38-32.58 138.88 29.5 54.32 20.66 122.72-24.6 167.98-45.28 45.3-113.62 54.14-167.92 24.62-53.85 52.494-142.23 52.978-196.4 1.18-28.14-26.62-43.92-62.6-44.44-101.26-0.54-37.94 13.68-73.66 40-100.76-22.22-40.88-22.72-89.7-2.32-130.64zM709.644 722.68l-155.58-187.68h338.102l2.82 2.34c20.78 17.24 33.42 42.6 34.68 69.58 1.116 23.908-6.814 47.35-21.906 65.672 37.998 13.094 75.032 2.508 77.43 1.792 15.786-4.842 32.532 3.974 37.446 19.756 4.928 15.818-3.902 32.636-19.72 37.564-2.622 0.816-42.154 12.698-89.166 4.25 8.448 47.016-3.432 86.55-4.25 89.174-4.926 15.818-21.764 24.724-37.586 19.796-15.818-4.926-24.672-21.67-19.746-37.49 0.626-2.090 11.288-39.012-1.63-77.030-19.022 18.374-44.89 28.208-71.352 26.974-26.982-1.278-52.324-13.918-69.542-34.698zM993.984 475.002h-963.984c-16.56 0-30-12.314-30-27.466 0-119.762 50.98-232.334 143.52-317.018 8.18-7.484 16.58-14.656 25.22-21.518h686.502c8.64 6.862 17.040 14.034 25.22 21.518 92.54 84.684 143.52 197.256 143.52 317.036 0.002 15.152-13.438 27.448-29.998 27.448zM881.992 49h-739.996c-16.56 0-30-13.44-30-30s13.44-30 30-30h739.998c16.56 0 30 13.44 30 30-0.002 16.56-13.442 30-30.002 30z" />
<glyph unicode="&#xe925;" glyph-name="long-left-arrow" d="M23.631 468.874h976.738c11.618 0 21.005-9.387 21.005-21.005s-9.387-21.005-21.005-21.005h-925.998l127.475-127.475c8.205-8.205 8.205-21.53 0-29.735s-21.53-8.205-29.735 0l-163.381 163.381c-6.039 6.039-7.811 15.032-4.529 22.909 3.282 7.811 10.962 12.931 19.43 12.931zM187.208 632.451c5.383 0 10.765-2.035 14.835-6.17 8.205-8.205 8.205-21.53 0-29.735l-163.577-163.577c-8.205-8.205-21.53-8.205-29.735 0s-8.205 21.53 0 29.735l163.577 163.577c4.135 4.135 9.518 6.17 14.901 6.17z" />
<glyph unicode="&#xe926;" glyph-name="heart-hand" d="M804.354 902.022c-33.268 37.388-79.382 57.978-129.85 57.978-56.332 0-105.162-26.636-141.212-77.026-2.704-3.778-5.232-7.556-7.602-11.296-2.368 3.742-4.896 7.518-7.6 11.296-36.052 50.39-84.882 77.026-141.214 77.026-50.468 0-96.584-20.59-129.85-57.976-31.568-35.48-48.956-82.912-48.956-133.558 0-55.038 21.358-105.824 67.208-159.832 40.006-47.12 97.39-95.554 163.838-151.638 24.554-20.726 49.946-42.156 76.928-65.542 5.636-4.884 12.64-7.328 19.644-7.328 7.002 0 14.006 2.444 19.644 7.328 26.978 23.38 52.366 44.81 76.92 65.532 42.674 36.020 79.528 67.126 111.51 97.298 62.092 58.584 119.548 125.078 119.548 214.18 0 50.648-17.386 98.078-48.956 133.558zM692.597 597.919c-30.772-29.034-67.040-59.644-109.034-95.088-18.682-15.766-37.842-31.938-57.872-49.114-20.034 17.174-39.2 33.35-57.882 49.12-130.798 110.398-209.75 177.034-209.75 265.627-0.004 74.994 51.076 131.546 118.816 131.546 36.19 0 66.968-17.036 91.478-50.634 20.116-27.572 28.374-56.156 28.43-56.348 3.6-12.994 15.424-21.99 28.906-21.99s25.306 8.996 28.906 21.99c0.296 1.070 30.66 106.982 119.91 106.982 67.738 0 118.82-56.554 118.82-131.546 0-54.338-28.242-102.154-100.728-170.546zM933.906 355.907c-24.882 0-48.884-10.446-65.85-28.658l-88.154-94.636c-11.394 36.632-45.61 63.306-85.942 63.306h-138.56c-19.398 0-38.104 7.058-52.668 19.874-78.326 68.928-196.058 69.534-275.127 1.906-16.306 23.086-43.174 38.206-73.526 38.206h-123.972c-16.564 0-29.994-13.428-29.994-29.994v-359.919c0-16.564 13.428-29.994 29.994-29.994h123.972c26.936 0 51.128 11.914 67.632 30.73l17.762-4.992c60.756-17.078 123.56-25.736 186.67-25.736h267.815c65.732 0 128.522 31.396 167.962 83.982l143.998 191.994c0.002 0.004 0.004 0.008 0.008 0.012 11.75 15.668 17.96 34.32 17.96 53.942 0 49.614-40.366 89.978-89.98 89.978zM184.074 25.982c0-16.538-13.454-29.994-29.994-29.994h-93.98v299.933h93.98c16.538 0 29.994-13.454 29.994-29.994v-239.946zM957.932 247.973c0-0.002-0.002-0.002-0.004-0.004l-143.996-191.998c-28.172-37.562-73.022-59.986-119.974-59.986h-267.809c-57.622 0-114.966 7.906-170.438 23.498l-11.73 3.298c0.038 1.064 0.082 2.126 0.082 3.198v226.39l20.902 18.394c56.48 49.7 141.662 49.704 198.146 0 25.522-22.458 58.296-34.826 92.294-34.826h138.56c16.538 0 29.994-13.456 29.994-29.994s-13.454-29.994-29.994-29.994h-213.17c-16.564 0-29.994-13.428-29.994-29.994s13.428-29.994 29.994-29.994h233.268c24.882 0 48.88 10.442 65.842 28.65l132.046 141.752c5.742 6.164 13.54 9.558 21.956 9.558 16.538 0 29.994-13.454 29.994-29.994 0-6.54-2.064-12.748-5.968-17.954z" />
<glyph unicode="&#xe927;" glyph-name="long-down-arrow" d="M491.126-40.369v976.738c0 11.618 9.387 21.005 21.005 21.005s21.005-9.387 21.005-21.005v-925.998l127.475 127.475c8.205 8.205 21.53 8.205 29.735 0s8.205-21.53 0-29.735l-163.381-163.381c-6.039-6.039-15.032-7.811-22.909-4.529-7.811 3.282-12.931 10.962-12.931 19.43zM327.549 123.208c0 5.383 2.035 10.765 6.17 14.835 8.205 8.205 21.53 8.205 29.735 0l163.577-163.577c8.205-8.205 8.205-21.53 0-29.735s-21.53-8.205-29.735 0l-163.577 163.577c-4.135 4.135-6.17 9.518-6.17 14.901z" />
<glyph unicode="&#xe929;" glyph-name="long-right-arrow" d="M1000.369 427.126h-976.738c-11.618 0-21.005 9.387-21.005 21.005s9.387 21.005 21.005 21.005h925.998l-127.475 127.475c-8.205 8.205-8.205 21.53 0 29.735s21.53 8.205 29.735 0l163.381-163.381c6.039-6.039 7.811-15.032 4.529-22.909-3.282-7.811-10.962-12.931-19.43-12.931zM836.792 263.549c-5.383 0-10.765 2.035-14.835 6.17-8.205 8.205-8.205 21.53 0 29.735l163.577 163.577c8.205 8.205 21.53 8.205 29.735 0s8.205-21.53 0-29.735l-163.577-163.577c-4.135-4.135-9.518-6.17-14.901-6.17z" />
<glyph unicode="&#xe92a;" glyph-name="magnifying-glass" d="M1015.031-11.778l-248.848 248.848c66.753 76.743 107.168 176.873 107.168 286.311 0 240.901-195.945 436.619-436.619 436.619-240.901 0-436.619-195.945-436.619-436.619s195.945-436.619 436.619-436.619c109.439 0 209.568 40.415 286.311 107.168l248.848-248.848c5.903-5.903 13.85-9.082 21.57-9.082s15.667 2.952 21.57 9.082c11.807 11.807 11.807 31.333 0 43.14zM61.19 523.381c0 207.071 168.472 375.315 375.315 375.315 207.071 0 375.315-168.472 375.315-375.315s-168.245-375.542-375.315-375.542c-206.843 0-375.315 168.472-375.315 375.542z" />
<glyph unicode="&#xe92b;" glyph-name="megaphone" d="M686.48 860.67c-40.93 0-75.568-27.44-86.494-64.888l-456.442-95.75c-13.892-2.916-23.84-15.166-23.84-29.362v-34.262h-89.704c-16.568 0-30-13.432-30-30v-158.502c0-16.568 13.432-30 30-30h89.704v-42.092c0-14.194 9.948-26.446 23.84-29.362l47.188-9.9v-215.738c0-39.882 27.12-74.096 65.952-83.2 6.538-1.534 13.13-2.286 19.672-2.286 19.032 0 37.606 6.382 52.916 18.518 20.572 16.308 32.372 40.716 32.372 66.968v39.070h6c68.096 0 125.48 46.738 141.76 109.82l90.582-19.002c10.924-37.448 45.564-64.888 86.494-64.888 49.668 0 90.078 40.41 90.078 90.078v494.7c0 49.67-40.408 90.078-90.078 90.078zM119.704 477.906h-59.704v98.502h59.704zM301.644 120.816c0-7.82-3.514-15.090-9.642-19.948-6.128-4.86-14.008-6.622-21.622-4.836-11.568 2.712-19.646 12.904-19.646 24.784v203.152l50.912-10.68v-192.472zM367.644 219.884h-6v80.816l88.926-18.654c-10.496-35.88-43.698-62.162-82.926-62.162zM596.402 312.76l-416.698 87.414v246.138l416.698 87.414zM716.558 275.892c0-16.584-13.494-30.078-30.078-30.078-16.586 0-30.080 13.494-30.080 30.078v494.7c0 16.584 13.494 30.078 30.080 30.078 16.584 0 30.078-13.494 30.078-30.078zM892.588 726.020c6.728 0 13.498 2.252 19.090 6.872l60.304 49.816c12.774 10.552 14.574 29.462 4.022 42.236s-29.462 14.576-42.236 4.022l-60.304-49.816c-12.774-10.552-14.574-29.462-4.022-42.236 5.932-7.18 14.506-10.894 23.146-10.894zM971.982 271.606l-60.304 49.816c-12.772 10.55-31.682 8.75-42.236-4.022-10.552-12.774-8.75-31.682 4.022-42.236l60.304-49.816c5.592-4.62 12.36-6.872 19.090-6.872 8.638 0 17.214 3.714 23.146 10.894 10.552 12.774 8.75 31.684-4.022 42.236zM994 557.158h-127.294c-16.568 0-30-13.432-30-30s13.432-30 30-30h127.294c16.568 0 30 13.432 30 30s-13.432 30-30 30z" />
<glyph unicode="&#xe92c;" glyph-name="message" d="M1023.218 564.798c-0.002 1.54-0.346 3.866-0.944 5.206-1.574 5.708-5.072 10.922-10.308 14.562l-146.584 101.896v109.232c0 14.48-11.744 26.224-26.224 26.224h-168.638l-143.486 99.756c-8.968 6.242-20.874 6.268-29.87 0.052l-144.412-99.808h-167.9c-14.484 0-26.224-11.744-26.224-26.224v-107.946l-147.296-101.802c-7.246-5.008-11.166-13.014-11.29-21.2-0.008-0.154-0.042-0.3-0.042-0.46l0.782-568.47c0.010-6.954 2.782-13.62 7.704-18.532 4.916-4.902 11.576-7.654 18.52-7.654 0.014 0 0.024 0 0.036 0l970.77 1.334c14.48 0.020 26.208 11.778 26.188 26.26l-0.782 567.574zM865.38 622.584l83.796-58.236-83.796-58.256v116.492zM512.030 868.232l66.62-46.312h-133.624l67.004 46.312zM211.076 769.47h601.856v-299.842l-202.072-140.484-82.388 63.908c-0.128 0.1-0.238 0.162-0.362 0.252-9.208 6.908-22.232 7.162-31.788-0.252l-82.986-64.37-202.26 139.786v301.002zM158.628 623.994v-119.28l-86.292 59.638 86.292 59.642zM52.516 514.266l317.338-219.31-316.698-245.648-0.64 464.958zM103.75 22.182l408.648 316.968 407.182-315.846-815.83-1.122zM654.288 295.458l316.552 220.072 0.64-466.118-317.192 246.046zM689.54 664.574h-355.072c-14.48 0-26.224-11.744-26.224-26.224s11.744-26.224 26.224-26.224h355.072c14.484 0 26.224 11.744 26.224 26.224s-11.74 26.224-26.224 26.224zM689.54 528.21h-355.072c-14.48 0-26.224-11.744-26.224-26.224s11.744-26.224 26.224-26.224h355.072c14.484 0 26.224 11.744 26.224 26.224s-11.74 26.224-26.224 26.224z" />
<glyph unicode="&#xe92d;" glyph-name="phone-call" d="M985.114 158.88l-200.646 200.644c-23.952 23.95-62.916 23.95-86.87 0l-52.176-52.176c-16.348-16.348-21.516-39.69-15.546-60.482l-19.686-19.686c-0.006-0.006-0.010-0.010-0.016-0.016-13.98-13.996-101.046 7.482-206.29 112.726-105.228 105.226-126.712 192.278-112.732 206.284 0 0.004 0.004 0.004 0.004 0.004l19.704 19.702c5.562-1.598 11.302-2.414 17.046-2.414 15.73 0 31.458 5.986 43.436 17.96l52.176 52.176c23.95 23.95 23.95 62.916 0 86.868l-200.646 200.648c-11.6 11.6-27.026 17.988-43.432 17.988-16.41 0-31.83-6.392-43.432-17.988l-52.18-52.18c-16.348-16.348-21.516-39.692-15.546-60.482 0 0-16.688-16.848-17.518-17.912-55.506-61.698-65.92-158.836-29.122-274.974 36.034-113.714 113.714-234.176 218.734-339.19 105.016-105.016 225.478-182.696 339.192-218.734 45.68-14.474 88.414-21.646 127.22-21.646 63.626 0 116.674 19.296 154.7 57.32l10.948 10.948c5.48-1.576 11.204-2.426 17.064-2.426 16.41 0 31.834 6.392 43.432 17.988l52.18 52.18c23.95 23.95 23.95 62.918 0.002 86.87zM179.44 877.686l200.648-200.65-52.148-52.204c0 0-0.010 0.010-0.028 0.028l-200.65 200.646 52.178 52.18zM818.058 36.754c-0.004-0.004-0.006-0.006-0.010-0.010-44.188-44.182-122.292-51.48-219.922-20.54-104.504 33.116-216.13 105.428-314.312 203.612-98.186 98.184-170.498 209.806-203.612 314.312-30.94 97.634-23.642 175.74 20.55 219.934l5.544 5.544 155.714-155.712-14.282-14.282c-0.010-0.010-0.018-0.022-0.030-0.034-59.17-59.244 11.926-192.294 112.756-293.124 75.468-75.468 168.986-134.28 236.102-134.28 22.568 0 42.152 6.65 57.056 21.556 0.006 0.006 0.010 0.010 0.016 0.016l14.266 14.266 155.714-155.712-5.55-5.546zM889.504 63.264l-200.648 200.648 52.176 52.176 200.648-200.644c0 0-52.158-52.198-52.176-52.18zM777.636 713.632c-58.418 58.418-136.084 90.588-218.688 90.586-16.962 0-30.712-13.75-30.712-30.712s13.752-30.712 30.712-30.712c66.2 0.004 128.438-25.78 175.256-72.594 46.812-46.812 72.59-109.050 72.588-175.248 0-16.962 13.75-30.716 30.712-30.716 16.96 0 30.712 13.75 30.712 30.708 0.002 82.608-32.17 160.27-90.58 218.688zM887.79 823.786c-87.846 87.842-204.634 136.218-328.854 136.214-16.962 0-30.712-13.752-30.712-30.712 0-16.962 13.752-30.712 30.712-30.712 107.814 0.004 209.176-41.984 285.418-118.222 76.236-76.236 118.222-177.598 118.22-285.412 0-16.962 13.75-30.712 30.712-30.712 16.96 0 30.712 13.75 30.712 30.708 0.004 124.224-48.372 241.008-136.208 328.848zM667.474 603.48c-29.412 29.412-66.93 44.954-108.512 44.954 0 0-0.010 0-0.012 0-16.962-0.004-30.712-13.752-30.708-30.716 0.004-16.962 13.756-30.712 30.716-30.708 0.004 0 0.006 0 0.010 0 25.288 0 47.186-9.072 65.078-26.962 17.638-17.64 26.962-40.15 26.958-65.088-0.004-16.962 13.75-30.712 30.708-30.716h0.004c16.962 0 30.708 13.75 30.712 30.708 0.002 41.584-15.54 79.112-44.954 108.528z" />
<glyph unicode="&#xe92e;" glyph-name="placeholder" d="M777.765 333.902c-22.87 5.546-45.909-8.746-51.327-31.657-5.462-22.912 8.746-45.909 31.657-51.327 132.519-31.445 180.562-77.95 180.562-101.588 0-50.985-170.151-127.998-426.658-127.998-256.465 0-426.658 77.012-426.658 127.998 0 23.638 48.085 70.143 180.518 101.588 22.954 5.418 37.119 28.415 31.657 51.327-5.418 22.912-28.457 37.205-51.327 31.657-158.759-37.631-246.181-103.166-246.181-184.572 0-140.029 257.617-213.33 511.99-213.33 254.417 0 511.99 73.301 511.99 213.33 0 81.406-87.422 146.941-246.225 184.572zM512.020 618.645c23.552 0 42.665 19.114 42.665 42.665s-19.114 42.665-42.665 42.665-42.665-19.114-42.665-42.665 19.114-42.665 42.665-42.665zM456.469 164.98l17.366-34.729c7.254-14.464 22.016-23.594 38.185-23.594s30.933 9.13 38.185 23.594l36.777 73.557c44.757 89.556 99.966 176.295 153.341 260.177l24.32 38.271c30.121 47.615 46.037 102.612 46.037 159.059 0 84.99-36.393 166.227-99.838 222.886-63.401 56.617-148.689 83.75-233.721 73.767-132.777-15.104-242.427-122.024-260.817-254.203-10.88-78.334 8.704-156.115 55.081-219.090 72.363-98.044 128.851-207.142 185.084-319.694zM512.020 789.309c70.569 0 127.998-57.429 127.998-127.998s-57.429-127.998-127.998-127.998-127.998 57.429-127.998 127.998c0 70.569 57.429 127.998 127.998 127.998z" />
<glyph unicode="&#xe92f;" glyph-name="reading-book" d="M682 790c0-93.888-76.112-170-170-170s-170 76.112-170 170c0 93.888 76.112 170 170 170s170-76.112 170-170zM636.918 596.97c-35.994-23.374-78.896-36.97-124.918-36.97s-88.924 13.596-124.918 36.97c-39.79-15.206-76.682-37.64-108.76-66.432l233.678-87.63 233.678 87.63c-32.078 28.792-68.97 51.228-108.76 66.432zM872 340h-20c-16.568 0-30-13.432-30-30v-80c0-16.568 13.432-30 30-30h20c38.66 0 70 31.34 70 70s-31.34 70-70 70zM174.912 491.448c-8.088-5.606-12.912-14.818-12.912-24.658v-66.79h10c49.626 0 90-40.374 90-90v-80c0-49.626-40.374-90-90-90h-10v-63.21c0-12.506 7.758-23.7 19.466-28.090l300.534-112.7v454.080l-279.466 104.8c-9.214 3.458-19.536 2.176-27.622-3.432zM762 230v80c0 49.626 40.374 90 90 90h10v66.79c0 9.84-4.824 19.052-12.912 24.658-8.088 5.608-18.412 6.89-27.622 3.432l-279.466-104.8v-454.080l300.534 112.7c11.708 4.39 19.466 15.584 19.466 28.090v63.21h-10c-49.626 0-90 40.374-90 90zM202 230v80c0 16.568-13.432 30-30 30h-20c-38.66 0-70-31.34-70-70s31.34-70 70-70h20c16.568 0 30 13.432 30 30z" />
<glyph unicode="&#xe930;" glyph-name="right-arrow" d="M1012.268 476.314c-0.012 0.012-0.022 0.026-0.036 0.038l-209.008 208c-15.658 15.582-40.984 15.524-56.57-0.136-15.584-15.658-15.524-40.984 0.134-56.568l140.328-139.648h-847.116c-22.092 0-40-17.908-40-40s17.908-40 40-40h847.114l-140.324-139.648c-15.658-15.584-15.718-40.91-0.134-56.568 15.586-15.662 40.914-15.716 56.57-0.136l209.008 208c0.012 0.012 0.022 0.026 0.036 0.038 15.666 15.636 15.616 41.044-0.002 56.628z" />
<glyph unicode="&#xe931;" glyph-name="shopping-cart" d="M307.407 285.773h564.225c63.978 0 116.17 52.192 116.17 116.17v237.391c0 0.21 0 0.631 0 0.842 0 0.631 0 1.052 0 1.684 0 0.421 0 0.842-0.21 1.263 0 0.421-0.21 1.052-0.21 1.473s-0.21 0.842-0.21 1.263c-0.21 0.421-0.21 0.842-0.421 1.473-0.21 0.421-0.21 0.842-0.421 1.263s-0.21 0.842-0.421 1.263c-0.21 0.421-0.421 0.842-0.631 1.473-0.21 0.421-0.421 0.842-0.631 1.052-0.21 0.421-0.421 0.842-0.631 1.263s-0.421 0.631-0.631 1.052c-0.21 0.421-0.631 0.842-0.842 1.263s-0.421 0.631-0.842 1.052c-0.21 0.421-0.631 0.631-0.842 1.052s-0.631 0.631-0.842 1.052-0.631 0.631-0.842 0.842c-0.421 0.421-0.631 0.631-1.052 1.052-0.421 0.21-0.631 0.631-1.052 0.842s-0.842 0.631-1.263 0.842c-0.421 0.21-0.631 0.421-1.052 0.631s-0.842 0.421-1.263 0.842c-0.421 0.21-0.842 0.421-1.263 0.631s-0.842 0.421-1.263 0.631-0.842 0.421-1.263 0.631-0.842 0.21-1.263 0.421c-0.421 0.21-1.052 0.421-1.473 0.421s-0.842 0.21-1.052 0.21-1.052 0.21-1.684 0.21c-0.21 0-0.421 0.21-0.842 0.21l-715.12 98.703v99.755c0 1.052 0 2.105-0.21 2.946 0 0.21 0 0.421-0.21 0.842 0 0.631-0.21 1.263-0.21 1.894-0.21 0.631-0.21 1.052-0.421 1.684 0 0.421-0.21 0.631-0.21 1.052-0.21 0.631-0.421 1.263-0.631 1.894 0 0.21-0.21 0.631-0.21 0.842-0.21 0.631-0.421 1.052-0.842 1.684-0.21 0.21-0.21 0.631-0.421 0.842-0.21 0.421-0.421 0.842-0.842 1.263-0.21 0.421-0.421 0.631-0.631 1.052s-0.421 0.631-0.631 1.052-0.631 0.842-0.842 1.263c-0.21 0.21-0.421 0.421-0.631 0.631-0.421 0.421-0.842 0.842-1.263 1.263-0.21 0.21-0.421 0.421-0.631 0.631-0.421 0.421-0.842 0.842-1.473 1.263-0.21 0.21-0.631 0.421-0.842 0.631-0.421 0.421-0.842 0.631-1.263 1.052-0.631 0.421-1.263 0.842-1.684 1.052-0.21 0.21-0.421 0.21-0.631 0.421-0.842 0.421-1.894 0.842-2.736 1.263l-155.104 65.24c-14.521 6.103-31.147-0.631-37.25-15.153s0.631-31.147 15.153-37.25l137.636-58.085v-622.521c0-58.927 44.195-107.752 101.228-115.118-10.312-17.257-16.415-37.461-16.415-58.927 0-63.346 51.561-114.697 114.697-114.697s114.697 51.561 114.697 114.697c0 21.045-5.682 41.038-15.784 57.875h255.49c-10.102-17.047-15.784-36.829-15.784-57.875 0-63.346 51.561-114.697 114.697-114.697s114.697 51.561 114.697 114.697-51.561 114.697-114.697 114.697h-536.656c-32.831 0-59.348 26.728-59.348 59.348v77.026c17.257-10.102 37.671-15.994 59.348-15.994zM448.831 50.907c0-31.989-26.096-57.875-57.875-57.875s-57.875 26.096-57.875 57.875 26.096 57.875 57.875 57.875 57.875-25.886 57.875-57.875zM902.148 50.907c0-31.989-26.096-57.875-57.875-57.875s-57.875 26.096-57.875 57.875 26.096 57.875 57.875 57.875 57.875-25.886 57.875-57.875zM871.632 342.596h-564.225c-32.831 0-59.348 26.728-59.348 59.348v307.051l682.921-94.073v-212.768c0-33.041-26.728-59.558-59.348-59.558z" />
<glyph unicode="&#xe932;" glyph-name="social-campaign" d="M64 864h256v-32h-256zM64 800h256v-32h-256zM64 736h160v-32h-160zM224 224h-32v64h-64v32h96zM800 352h-192v112c-0.086 79.492-64.508 143.914-144 144h-16v-160c-0.031-6.922-2.273-13.648-6.398-19.203l-60-80c-6.063-8.031-15.539-12.773-25.602-12.797h-68v48h-288v-32h256v-384h-256v-32h288v48h88.227l96-48h183.773c35.344 0 64 28.656 64 64v34.031c28.242 7.32 47.969 32.797 48 61.969v34.031c28.242 7.32 47.969 32.797 48 61.969v34.016c31.234 8.031 51.617 38.055 47.555 70.047-4.063 32-31.305 55.969-63.555 55.938zM800 256h-120v-32h104v-32c0-17.672-14.328-32-32-32h-120v-32h104v-32c0-17.672-14.328-32-32-32h-72v-32h56v-32c0-17.672-14.328-32-32-32h-176.227l-96 48h-95.773v288h68c20.133 0.047 39.086 9.523 51.203 25.602l60.016 80c8.273 11.094 12.75 24.555 12.781 38.398v126.867c55.070-8.031 95.93-55.219 96-110.867v-144h224c17.672 0 32-14.328 32-32s-14.328-32-32-32zM224 48c0 26.508-21.492 48-48 48s-48-21.492-48-48 21.492-48 48-48 48 21.492 48 48zM160 48c0 8.836 7.164 16 16 16s16-7.164 16-16-7.164-16-16-16-16 7.164-16 16zM624 960v-137.375l-118.625-118.625h134.625v-96h384v352zM992 640h-320v96h-89.375l73.375 73.375v118.625h336zM192 518.398l71.68 89.602h120.32v352h-384v-352h120.32zM32 928h320v-288h-103.68l-56.32-70.398-56.32 70.398h-103.68zM816 681.844l90.852 90.844c26.211 26.211 28.328 68.016 4.898 96.742s-64.805 35.063-95.75 14.648c-30.945 20.414-72.32 14.078-95.75-14.648s-21.313-70.531 4.898-96.742zM747.773 852.227c15.742 15.656 41.172 15.656 56.914 0l11.313-11.313 11.313 11.313c15.719 15.711 41.195 15.711 56.914 0 15.711-15.719 15.711-41.195 0-56.914l-68.227-68.227-68.227 68.227c-15.664 15.734-15.664 41.172 0 56.914z" />
<glyph unicode="&#xe933;" glyph-name="solidarity" d="M940.324 858.567c-61.755 54.467-144.982 77.786-226.046 63.337-84.036-15.037-157.642-65.267-202.277-138.041-44.634 72.774-118.24 123.004-202.277 138.041-81.062 14.427-164.281-8.89-226.046-63.337-74.272-68.070-100.789-183.11-72.754-315.651 0.104-0.498 0.438-0.868 0.584-1.346 0.714-2.162 1.808-4.178 3.232-5.954 0.322-0.388 0.454-0.868 0.82-1.234 0.472-0.352 0.962-0.678 1.47-0.978 0.87-0.714 1.81-1.34 2.806-1.864 1.902-0.998 3.98-1.622 6.118-1.834 0.566-0.056 1.104-0.326 1.67-0.326 0.61 0.086 1.216 0.204 1.812 0.354 0.574-0.026 1.148-0.022 1.72 0.014 0.5 0.106 0.87 0.438 1.352 0.584 1.080 0.34 2.122 0.79 3.108 1.344 1.018 0.532 1.978 1.17 2.864 1.904 0.38 0.318 0.852 0.446 1.208 0.802l60.037 60.021 0.2 0.132c13.161 13.199 34.484 13.377 47.865 0.402s13.859-34.294 1.070-47.855l-98.471-98.471c-4.328-4.302-6.028-10.591-4.46-16.489s6.168-10.511 12.061-12.095 12.185 0.098 16.501 4.414l97.393 97.391c0.134 0.128 0.312 0.164 0.446 0.296 0.254 0.254 0.416 0.56 0.666 0.816l59.191 59.191c0.15 0.14 0.35 0.182 0.496 0.328 13.491 12.935 34.778 12.935 48.269 0 13.229-13.275 13.297-34.73 0.15-48.087l-0.2-0.132-181.726-181.744c-4.31-4.312-5.994-10.595-4.416-16.485s6.178-10.489 12.067-12.067c5.888-1.578 12.173 0.106 16.485 4.416l158.17 157.988c13.487 12.971 34.906 12.653 48.003-0.712s12.979-34.786-0.262-48.007l-168.075-168.085c-4.312-4.312-5.994-10.595-4.416-16.485 1.578-5.888 6.178-10.489 12.067-12.067s12.173 0.106 16.485 4.416l131.895 131.905c13.333 13.329 34.946 13.323 48.275-0.010s13.325-34.946-0.010-48.275c-0.072-0.072-0.092-0.174-0.164-0.248l-132.275-132.275c-0.086-0.086-0.108-0.204-0.192-0.29-0.088-0.090-0.208-0.12-0.292-0.21-0.624-0.834-1.164-1.724-1.616-2.662-0.662-0.884-1.236-1.832-1.716-2.826-0.316-1.056-0.528-2.14-0.63-3.236-0.694-2.062-0.648-4.302 0.126-6.336 0.148-1.094 0.404-2.172 0.762-3.216 0.532-0.998 1.158-1.942 1.874-2.82 0.48-0.896 1.044-1.746 1.686-2.536 0.086-0.086 0.204-0.11 0.29-0.192 0.090-0.086 0.12-0.206 0.21-0.29 83.354-74.874 173.625-141.671 269.598-199.495 5.466-3.334 12.337-3.334 17.801 0 95.971 57.823 186.242 124.621 269.596 199.495 0.092 0.084 0.12 0.204 0.21 0.29 0.086 0.084 0.204 0.108 0.29 0.192 0.64 0.79 1.204 1.64 1.686 2.536 0.714 0.876 1.342 1.822 1.874 2.82 0.544 2.102 1.004 4.226 1.374 6.366-0.062 1.076-0.224 2.142-0.488 3.186-0.102 1.098-0.312 2.182-0.63 3.236-0.48 0.994-1.056 1.942-1.716 2.826-0.452 0.938-0.994 1.828-1.618 2.662-0.084 0.092-0.204 0.12-0.292 0.21-0.084 0.086-0.106 0.204-0.192 0.29l-132.275 132.275c-0.072 0.074-0.092 0.174-0.164 0.248-13.333 13.329-13.337 34.942-0.010 48.275 13.329 13.333 34.942 13.337 48.275 0.010l131.895-131.905c6.664-6.664 17.469-6.664 24.135 0 6.664 6.664 6.664 17.471 0 24.135l-168.073 168.093c-8.626 8.622-11.995 21.191-8.84 32.972s12.355 20.985 24.135 24.143c11.781 3.158 24.351-0.208 32.976-8.83l0.204-0.136 157.438-157.422c6.674-6.606 17.433-6.58 24.073 0.062 6.64 6.64 6.668 17.399 0.060 24.073l-157.642 157.558c-0.108 0.11-0.242 0.18-0.352 0.288l-23.783 23.931c-13.315 13.321-13.313 34.912 0.008 48.227s34.912 13.313 48.227-0.008c0.146-0.146 0.346-0.19 0.494-0.33l57.575-57.575c0.688-0.82 1.416-1.578 2.324-2.488l0.024-0.028 0.004-0.002 0.012-0.014 97.789-97.621c4.314-4.316 10.607-6 16.501-4.414 5.894 1.584 10.493 6.196 12.061 12.095s-0.132 12.185-4.46 16.489l-97.939 97.721c-0.296 0.38-0.632 0.728-0.954 1.086l-0.080 0.13c-12.297 13.469-11.767 34.244 1.2 47.068 13.485 12.901 34.736 12.901 48.219 0l60.253-60.237c0.356-0.356 0.83-0.484 1.208-0.802 1.782-1.43 3.804-2.53 5.974-3.246 0.482-0.146 0.852-0.478 1.352-0.584 1.156-0.24 2.334-0.362 3.514-0.362l0.018-0.004h0.016c2.074 0.020 4.126 0.42 6.054 1.182 0.53 0.26 1.046 0.548 1.546 0.862 1.368 0.662 2.638 1.506 3.78 2.508 0.204 0.186 0.472 0.25 0.67 0.446 0.36 0.36 0.49 0.836 0.81 1.22 0.88 1.026 1.632 2.158 2.236 3.368 0.384 0.772 0.708 1.574 0.964 2.396 0.234 0.506 0.442 1.022 0.622 1.548 28.037 132.543 1.52 247.583-72.75 315.653zM985.212 581.742l-37.022 37.012c-26.997 25.777-69.49 25.777-96.489 0-8.438-8.506-14.499-19.077-17.579-30.658l-18.541 18.541c-0.262 0.264-0.616 0.352-0.894 0.594-23.643 23.169-60.535 25.945-87.379 6.574s-35.836-55.257-21.299-84.996c-23.517-4.482-42.94-21.007-51.131-43.5s-3.942-47.641 11.187-66.193c-11.963-2.894-22.905-9.004-31.644-17.671-26.457-26.551-26.591-69.46-0.298-96.173 0.126-0.136 0.164-0.316 0.298-0.448l119.65-119.65c-75.452-66.195-156.44-125.803-242.073-178.165-85.633 52.365-166.621 111.97-242.073 178.165l119.65 119.65c0.134 0.132 0.17 0.312 0.298 0.448 26.293 26.715 26.159 69.622-0.298 96.173-8.746 8.658-19.689 14.767-31.65 17.665 15.123 18.545 19.377 43.678 11.201 66.167s-27.577 39.022-51.081 43.526c12.655 26.053 7.456 57.257-12.959 77.802-26.699 25.527-68.672 25.817-95.721 0.66-0.3-0.262-0.682-0.358-0.966-0.644l-18.683-18.683c-2.964 11.607-8.966 22.213-17.387 30.734-26.499 26.447-69.356 26.619-96.067 0.386-0.138-0.13-0.32-0.168-0.454-0.302l-37.024-37.012c-15.411 106.698 8.618 197.282 67.958 251.657 54.257 46.932 126.703 67.060 197.394 54.837 80.254-13.317 148.758-65.103 192.876-145.842 3.26-5.122 8.912-8.226 14.985-8.226s11.725 3.102 14.985 8.226c44.12 80.738 112.622 132.523 192.876 145.842 70.69 12.219 143.134-7.906 197.394-54.837 59.339-54.377 83.37-144.962 67.958-251.659z" />
<glyph unicode="&#xe934;" glyph-name="volunteer" d="M704.011 661.333c0-106.039-85.961-192-192-192s-192 85.961-192 192c0 106.039 85.961 192 192 192s192-85.961 192-192zM911.138 614.354c-30.375 28.625-81.292 25.479-113.958-7.333l-87.417-92.267c-48.897-54.179-119.369-88.083-197.76-88.083-78.578 0-149.199 34.066-197.9 88.235l-0.216 0.244-87.417 92.251c-32.251 32.458-83.25 35.583-113.584 6.958-15.845-15.964-25.638-37.955-25.638-62.233 0-22.654 8.526-43.317 22.545-58.954l-0.073 0.083 188.958-223.733v-205.521c0-0.004 0-0.008 0-0.013 0-11.775 9.546-21.321 21.321-21.321 0.005 0 0.009 0 0.014 0h383.999c0.004 0 0.008 0 0.013 0 11.775 0 21.321 9.546 21.321 21.321 0 0.005 0 0.009 0 0.014v-0.001 205.521l188.75 223.5c14.053 15.592 22.65 36.342 22.65 59.099 0 24.273-9.78 46.262-25.615 62.241l0.007-0.007z" />
<glyph unicode="&#xe935;" glyph-name="volunteering" d="M915.2 554.667c-34.133 0-62.421-25.6-65.813-59.541l-16.533-165.419-77.355-77.355 7.509 52.48c4.224 29.632-13.291 57.984-41.664 67.456-28.16 9.387-59.2-2.645-73.643-28.651l-79.595-143.275c-8.789-15.808-13.44-33.707-13.44-51.819v-148.544c0-11.776 9.536-21.333 21.333-21.333h213.333c7.125 0 13.781 3.563 17.749 9.493l156.331 234.517c11.712 17.557 17.92 38.016 17.92 59.179v206.677c0 36.459-29.675 66.133-66.133 66.133zM216.917-11.84c3.968-5.931 10.624-9.493 17.749-9.493h213.333c11.797 0 21.333 9.557 21.333 21.333v148.544c0 18.091-4.651 36.011-13.419 51.819l-79.595 143.253c-32.875 59.264-125.035 28.331-115.307-38.784 0 0 7.509-52.501 7.509-52.501l-77.376 77.376-16.533 165.419c-9.621 82.432-130.347 76.565-131.947-6.592v-206.677c0-21.163 6.208-41.621 17.92-59.157zM279.296 555.371l218.837-187.563c7.957-6.848 19.776-6.848 27.755 0l218.837 187.563c55.467 47.552 87.275 116.715 87.275 189.781 1.792 151.147-188.587 230.059-293.931 121.749 0 0-26.069-26.069-26.069-26.069l-26.069 26.069c-105.259 108.267-295.808 29.419-293.931-121.749 0-73.067 31.808-142.229 87.296-189.781z" />
<glyph unicode="&#xe936;" glyph-name="woman" d="M832-64c-7.678 0-15.356 2.93-21.212 8.788l-135.878 135.878c-21.222 21.22-32.91 49.436-32.91 79.448s11.688 58.226 32.908 79.446 49.436 32.908 79.448 32.908c29.17 0 56.64-11.040 77.644-31.146 21.002 20.106 48.474 31.146 77.644 31.146 30.012 0 58.226-11.688 79.448-32.908 21.22-21.22 32.908-49.436 32.908-79.446s-11.688-58.226-32.908-79.448l-135.878-135.878c-5.858-5.858-13.536-8.788-21.214-8.788zM432 705.862l-2.8-2.49c-41.346-36.752-92.754-59.538-147.2-65.684v-111.688c0-82.71 67.29-150 150-150s150 67.29 150 150v111.688c-54.446 6.146-105.854 28.932-147.2 65.684zM503.212 507.926c11.714-11.716 11.716-30.71 0.002-42.428-19.020-19.022-44.312-29.498-71.214-29.498s-52.194 10.476-71.214 29.498c-11.714 11.716-11.712 30.71 0.002 42.428 11.716 11.71 30.71 11.712 42.428-0.002 7.686-7.69 17.908-11.924 28.784-11.924s21.098 4.234 28.786 11.924c11.718 11.714 30.708 11.716 42.426 0.002zM342 336.29v-50.29c0-5.922 1.754-11.712 5.040-16.64l60-90c5.562-8.346 14.93-13.36 24.96-13.36s19.398 5.014 24.96 13.36l60 90c3.286 4.928 5.040 10.718 5.040 16.64v50.29c-27.294-13-57.81-20.29-90-20.29s-62.706 7.29-90 20.29zM742 650c0 170.934-139.064 310-310 310s-310-139.066-310-310v-340.104c45.028 23.076 96.022 36.104 150 36.104h10v33.198c-37.090 37.89-60 89.716-60 146.802v140c0 16.568 13.432 30 30 30 50.684 0 99.458 18.542 137.336 52.214l22.732 20.208c11.368 10.106 28.496 10.106 39.864 0l22.732-20.208c37.878-33.672 86.652-52.214 137.336-52.214 16.568 0 30-13.432 30-30v-140c0-57.086-22.91-108.912-60-146.802v-33.198h10c40.108 0 78.562-7.206 114.15-20.368 11.594 3.358 23.594 5.488 35.85 6.35zM582 160.114c0 46.040 17.93 89.322 50.484 121.874 0.29 0.29 0.596 0.558 0.888 0.846-13.49 2.082-27.308 3.166-41.372 3.166h-10c0-17.826-5.226-35.090-15.116-49.922l-60-90c-16.724-25.094-44.72-40.078-74.884-40.078s-58.16 14.984-74.888 40.084l-59.996 89.994c-9.89 14.832-15.116 32.096-15.116 49.922h-10c-148.878 0-270-121.122-270-270v-50c0-16.568 13.432-30 30-30h702.722l-102.24 102.24c-32.554 32.552-50.482 75.836-50.482 121.874z" />
<glyph unicode="&#xe937;" glyph-name="long-up-arrow" d="M532.874 936.369v-976.738c0-11.618-9.387-21.005-21.005-21.005s-21.005 9.387-21.005 21.005v925.998l-127.475-127.475c-8.205-8.205-21.53-8.205-29.735 0s-8.205 21.53 0 29.735l163.381 163.381c6.039 6.039 15.032 7.811 22.909 4.529 7.811-3.282 12.931-10.962 12.931-19.43zM696.451 772.792c0-5.383-2.035-10.765-6.17-14.835-8.205-8.205-21.53-8.205-29.735 0l-163.577 163.577c-8.205 8.205-8.205 21.53 0 29.735s21.53 8.205 29.735 0l163.577-163.577c4.135-4.135 6.17-9.518 6.17-14.901z" />
<glyph unicode="&#xe938;" glyph-name="left-arrow" d="M11.732 419.686c0.012-0.012 0.022-0.026 0.036-0.038l209.008-208c15.658-15.582 40.984-15.524 56.57 0.136 15.584 15.658 15.524 40.984-0.134 56.568l-140.328 139.648h847.116c22.092 0 40 17.908 40 40s-17.908 40-40 40h-847.114l140.324 139.648c15.658 15.584 15.718 40.91 0.134 56.568-15.586 15.662-40.914 15.716-56.57 0.136l-209.008-208c-0.012-0.012-0.022-0.026-0.036-0.038-15.666-15.636-15.616-41.044 0.002-56.628z" />
<glyph unicode="&#xe939;" glyph-name="up-arrow" d="M483.686 948.268c-0.012-0.012-0.026-0.022-0.038-0.036l-208-209.008c-15.582-15.658-15.524-40.984 0.136-56.57 15.658-15.584 40.984-15.524 56.568 0.134l139.648 140.328v-847.116c0-22.092 17.908-40 40-40s40 17.908 40 40v847.114l139.648-140.324c15.584-15.658 40.91-15.718 56.568-0.134 15.662 15.586 15.716 40.914 0.136 56.57l-208 209.008c-0.012 0.012-0.026 0.022-0.038 0.036-15.636 15.666-41.044 15.616-56.628-0.002z" />
<glyph unicode="&#xe93a;" glyph-name="down-arrow" d="M540.314-52.268c0.012 0.012 0.026 0.022 0.038 0.036l208 209.008c15.582 15.658 15.524 40.984-0.136 56.57-15.658 15.584-40.984 15.524-56.568-0.134l-139.648-140.328v847.116c0 22.092-17.908 40-40 40s-40-17.908-40-40v-847.114l-139.648 140.324c-15.584 15.658-40.91 15.718-56.568 0.134-15.662-15.586-15.716-40.914-0.136-56.57l208-209.008c0.012-0.012 0.026-0.022 0.038-0.036 15.636-15.666 41.044-15.616 56.628 0.002z" />
</font>
</defs>
</svg>
